Ошибка

Три богатыря и Морской царь (Константин Феоктистов) [2016, Мультфильм, комедия, приключения, детский, полнометражный, WEB-DL 1080p]

Ответить на тему
 
Автор Сообщение

L

Пол: Пол:Муж

Стаж: 7 лет

Сообщений: 11370

Украина
Рейтинг

post 02-Фев-2017 00:46 5[+]

[Цитировать] 

Три богатыря и Морской царь
Оригинальное название: Три богатыря и Морской царь
Год выпуска: 2016
Жанр: Мультфильм, комедия, приключения, детский, полнометражный
Выпущено: Россия, Кинокомпания СТВ, Анимационная студия Мельница
Продолжительность: 01:13:37
Язык: Русский | Лицензия

Режиссер: Константин Феоктистов
В ролях: Сергей Маковецкий, Дмитрий Высоцкий, Олег Куликович, Валерий Соловьёв, Дмитрий Быковский-Ромашов, Елена Шульман, Лия Медведева, Мария Цветкова-Овсянникова

О фильме: У богатырей семейные неурядицы. Чтобы развеяться, они решают по-быстрому сгонять в Китай за зубом дракона, символом мудрости и силы. В это же время князь Киевский отправляется на прогулку вместе с конем Юлием за сокровищами морского царя, чтобы пополнить казну и «залатать бюджет». Да вот только морской царь решил жениться и для этого утопил Киев. И как теперь быть? Что поможет нашим героям? Дружба, смелость и, конечно, любовь.

| |

Качество: WEB-DL 1080p
Формат: MKV
Видео: MPEG-4 AVC, 5100 Кбит/с, 1920x1040
Аудио: AC3, 6 ch, 384 Кбит/с
Уникальный идентификатор : 216474729713140849072051343614996509259 (0xA2DB8433D2DEF2CB9B5A9A27C619F24B)
Полное имя : E:\V\TroyKa.BanduKoFF.i.Tsar.iz.MoRYa.2O16.O.WEB-DL.1O8Op.mkv
Формат : Matroska
Версия формата : Version 2
Размер файла : 2,83 Гбайт
Продолжительность : 1 ч. 13 м.
Общий поток : 5499 Кбит/сек
Дата кодирования : UTC 2017-02-01 19:20:50
Программа кодирования : mkvmerge v8.3.0 ('Over the Horizon') 64bit
Библиотека кодирования : libebml v1.3.1 + libmatroska v1.4.2

Видео
Идентификатор : 1
Формат : AVC
Формат/Информация : Advanced Video Codec
Профиль формата : High@L4
Параметр CABAC формата : Да
Параметр ReFrames формата : 4 кадра
Идентификатор кодека : V_MPEG4/ISO/AVC
Продолжительность : 1 ч. 13 м.
Битрейт : 5005 Кбит/сек
Ширина : 1920 пикселей
Высота : 1040 пикселей
Соотношение сторон : 1,85:1
Режим частоты кадров : Постоянный
Частота кадров : 25,000 кадров/сек
Цветовое пространство : YUV
Субдискретизация насыщенности : 4:2:0
Битовая глубина : 8 бит
Тип развёртки : Прогрессивная
Бит/(Пиксели*Кадры) : 0.100
Размер потока : 2,57 Гбайт (91%)
Язык : English
Default : Да
Forced : Нет
Цветовой диапазон : Limited
Основные цвета : BT.709
Характеристики трансфера : BT.709
Коэффициенты матрицы : BT.709

Аудио
Идентификатор : 2
Формат : AC-3
Формат/Информация : Audio Coding 3
Расширение режима : CM (complete main)
Параметр Endianness формата : Big
Идентификатор кодека : A_AC3
Продолжительность : 1 ч. 13 м.
Вид битрейта : Постоянный
Битрейт : 384 Кбит/сек
Каналы : 6 каналов
Расположение каналов : Front: L C R, Side: L R, LFE
Частота : 48,0 КГц
Частота кадров : 31,250 кадров/сек (1536 spf)
Битовая глубина : 16 бит
Метод сжатия : С потерями
Размер потока : 202 Мбайт (7%)
Язык : Russian
Default : Да
Forced : Нет

Меню
00:00:00.000 : en:Глава 1
00:05:35.600 : en:Глава 2
00:12:04.840 : en:Глава 3
00:19:11.360 : en:Глава 4
00:25:12.680 : en:Глава 5
00:30:19.080 : en:Глава 6
00:36:18.680 : en:Глава 7
00:41:13.440 : en:Глава 8
00:45:06.240 : en:Глава 9
00:50:40.040 : en:Глава 10
00:58:24.600 : en:Глава 11
01:03:35.880 : en:Глава 12
info [Профиль]  [ЛС] 

JeMi240

Стаж: 1 год 3 месяца

Сообщений: 4

Рейтинг

post 02-Фев-2017 11:09 (спустя 10 часов) [-]0[+]

[Цитировать] 

5. Запрещается создавать раздачи, где наименование файлов или папки, имеет название отличное от названия раздаваемого материала. То есть, если раздаётся фильм или игра "Терминатор", то и название файла\папки должно быть "Терминатор".

TroyKa.BanduKoFF.i.Tsar.iz.MoRYa = Три богатыря и Морской царь?
info [Профиль]  [ЛС] 

Alexander1980

Пол: Пол:Муж

Стаж: 5 лет 6 месяцев

Сообщений: 188

СССР
Рейтинг

post 02-Фев-2017 11:25 (спустя 15 минут) [-]-3[+]

[Цитировать] 

тройка бандюкофф и царь из моря)))) я ору kolob_137

_________________
info [Профиль]  [ЛС] 

Алексо

Пол: Пол:Муж

Стаж: 2 года 10 месяцев

Сообщений: 217

Россия
Рейтинг

post 02-Фев-2017 15:55 (спустя 4 часа) [-]6[+]

[Цитировать] 

Франшизу насилуют как могут! Печально, первые 3 серии были адекватны. Остальное ширпотреб. Ну может там где они на острове и то там юмор был.
info [Профиль]  [ЛС] 

ulvrid

Пол: Пол:Муж

Стаж: 7 лет 6 месяцев

Сообщений: 119

Россия
Рейтинг

post 02-Фев-2017 20:08 (спустя 4 часа) [-]-16[+]

[Цитировать] 

Печально ещё и то, что когда все давно уже перешли на трёхмерную анимацию, у нас до сих пор рисуют плоские мультфильмы
info [Профиль]  [ЛС] 

HoD

Пол: Пол:Муж

Стаж: 4 года 1 месяц

Сообщений: 69

Предупреждений: 1

Россия
Рейтинг

post 02-Фев-2017 21:01 (спустя 53 минуты) [-]15[+]

[Цитировать] 

ulvrid писал(а):

Печально ещё и то, что когда все давно уже перешли на трёхмерную анимацию, у нас до сих пор рисуют плоские мультфильмы
плоские, красиво нарисованные мультики лучше, чем кривая 3д графика.
info [Профиль]  [ЛС] 

ulvrid

Пол: Пол:Муж

Стаж: 7 лет 6 месяцев

Сообщений: 119

Россия
Рейтинг

post 02-Фев-2017 21:23 (спустя 22 минуты) [-]-4[+]

[Цитировать] 

HoD писал(а):

ulvrid писал(а):

Печально ещё и то, что когда все давно уже перешли на трёхмерную анимацию, у нас до сих пор рисуют плоские мультфильмы
плоские, красиво нарисованные мультики лучше, чем кривая 3д графика.
Да если б у нас хоть один мультфильм 3д сделали. Так нет же, рисуют в стиле ну погоди и трое из простоквашино. Ничего против этих мультфильмов не имею, вот только такая графика была актуальна лет 30 назад.
info [Профиль]  [ЛС] 

Bully43

Стаж: 7 лет

Сообщений: 175

Рейтинг

post 02-Фев-2017 21:35 (спустя 11 минут) [-]4[+]

[Цитировать] 

ulvrid писал(а):

Да если б у нас хоть один мультфильм 3д сделали
info [Профиль]  [ЛС] 

leon733

Пол: Пол:Муж

Стаж: 5 лет 9 месяцев

Сообщений: 56

Россия
Рейтинг

post 02-Фев-2017 21:40 (спустя 5 минут) [-]1[+]

[Цитировать] 

А вы барбоскины не смотрели ?

_________________
Where is my mind?
info [Профиль]  [ЛС] 

kaktus489

Стаж: 4 года 3 месяца

Сообщений: 54

Норвегия
Рейтинг

post 04-Фев-2017 17:12 (спустя 1 день 19 часов) [-]1[+]

[Цитировать] 

Позитивный мульт. Вполне смотрибельно. "Побелка, купорос.." - это вообще Булгаков.

_________________
Борьба с пиратством - это когда со злыми дядями, которые бесплатно качают музыку и фильмы, борются добрые дяди, которые бесплатно качают нефть и газ.
info [Профиль]  [ЛС] 

Remak

Стаж: 8 лет 1 месяц

Сообщений: 432

Рейтинг

post 11-Фев-2017 12:42 (спустя 6 дней) [-]1[+]

[Цитировать] 

ulvrid писал(а):

HoD писал(а):

ulvrid писал(а):

Печально ещё и то, что когда все давно уже перешли на трёхмерную анимацию, у нас до сих пор рисуют плоские мультфильмы
плоские, красиво нарисованные мультики лучше, чем кривая 3д графика.
Да если б у нас хоть один мультфильм 3д сделали. Так нет же, рисуют в стиле ну погоди и трое из простоквашино. Ничего против этих мультфильмов не имею, вот только такая графика была актуальна лет 30 назад.
Да хоть "Снежная королева", уже третья вышла. Или "Савва. Сердце воина". Мультик сам полная фигня, но визуал вполне сопоставим с голливудским.
Ну а если сериалы брать, то трёхмерная "Маша и медведь" вполне уже хитом мирового уровня стала. А так полно их - всякие фиксики, барбоскины.
info [Профиль]  [ЛС] 
Показать сообщения:    
Ответить на тему

Текущее время: 29-Апр 11:31

Часовой пояс: GMT + 4



Вы не можете начинать темы
Вы не можете отвечать на сообщения
Вы не можете редактировать свои сообщения
Вы не можете удалять свои сообщения
Вы не можете голосовать в опросах
Вы не можете прикреплять файлы к сообщениям
Вы не можете скачивать файлы