Ошибка

Плохой Санта / Bad Santa (Терри Цвигофф) [2003, США, Германия, драма, комедия, криминал, BDRemux 1080p] Dub + 2x AVO + Sub Rus, Eng + Original Eng

Ответить на тему
 
Автор Сообщение

N

Пол: Пол:Муж

Стаж: 5 лет 1 месяц

Сообщений: 232

Россия
Рейтинг

post 27-Дек-2016 20:05 9[+]

[Цитировать] 

Плохой Санта

Bad Santa

Страна: США, Германия
Студия: Blixa Zweite Film Produktion GmbH & Co. KG, Columbia Pictures Corporation, Dimension Films, Triptych Pictures
Жанр: Драма, комедия, криминал
Год выпуска: 2003
Продолжительность: 01:39:16
Перевод 1: Профессиональный (дублированный)
Перевод 2: Авторский (одноголосый закадровый) (Д. Пучков ака Гоблин), ненормативная лексика
Перевод 3: Авторский (одноголосый закадровый) (Карповский)
Cубтитры (.srt): Русские, Английские
Оригинальная аудиодорожка: Английская
Режиссер: Терри Цвигофф / Terry Zwigoff
В ролях: Билли Боб Торнтон, Тони Кокс, Бретт Келли, Лорен Грэм, Лорен Том, Берни Мак, Джон Риттер, Аджай Найду, Лорна Скотт, Харрисон Бикер, Алекс Борштейн, Александра Корхан, Дилан Чарльз, Билли Гарделл, Лиза Росс, Брайан Коллен, Том МакГоуэн, Грэйс Калдерон, Кристин Пикардо, Баки Доминик, Джорджия Эскью, Хейден Бромберг, Макс Ван Вилле, Бриана Нортон, Октавия Спенсер, Халли Синглтон, Райан Пинкстон, Натсуко Охама, Дэйв Адамс, Итэн Филлипс, Джои Саравия, Коуди Штраух, Маршалл Дворин, Кертис Тейлор, Джон Баннелл
Описание: Два приятеля - алкаш-еврей, специалист по взлому сейфов, и негр-карлик, под Рождество устраиваются работать в универмаги: еврей трудится Санта Клаусом, а чёрный карлик - эльфом. Когда магазин запирают на Рождество, карлик прячется в здании, потом отключает сигнализацию, впускает товарища, тот взламывает сейф с рождественской выручкой, после чего они разбегаются и встречаются под следующее Рождество. Но на этот раз всё складывается не так, как надо: Санта Клаус пьёт сверх меры, постоянно посылая детей куда подальше, занимается в кабинке для переодевания анальным сексом с покупательницами, поселяется в доме у мальчишки, верящего в Санта Клауса и совершает массу гнусных поступков. А чёрному карлику никак не удаётся его вразумить. Тем временем начальник службы безопасности универмага просекает, с кем имеет дело. И тут начинается самое интересное...
Тип релиза: BDRemux 1080p
Контейнер: MKV
Видео: VC-1 Video / 23721 kbps / 1080p / 23,976 fps
Аудио 1: Russian: DTS Audio / 5.1 / 48 kHz / 768 kbps / 24-bit (Дубляж)
Аудио 2: Russian: DTS-HD Master Audio / 5.1 / 48 kHz / 2322 kbps / 16-bit (DTS Core: 5.1 / 48 kHz / 1509 kbps / 16-bit) AVO (Д. Пучков ака Гоблин), ненормативная лексика
Аудио 3: Russian: DTS-HD Master Audio / 5.1 / 48 kHz / 2322 kbps / 16-bit (DTS Core: 5.1 / 48 kHz / 1509 kbps / 16-bit) AVO (Карповский)
Аудио 4: English: DTS-HD Master Audio / 5.1 / 48 kHz / 2318 kbps / 16-bit (DTS Core: 5.1 / 48 kHz / 1509 kbps / 16-bit)

Код:

General
Unique ID : 241851294097603214631883399578176545422 (0xB5F2DD6CA6BDDFA7A514F597B82D628E)
Complete name : Bad.Santa.2003.BDRemux.1080p.mkv
Format : Matroska
Format version : Version 2
File size : 21.8 GiB
Duration : 1h 39mn
Overall bit rate mode : Variable
Overall bit rate : 31.5 Mbps
Movie name : Bad.Santa.2003.BDRemux.1080p.[Release_by_Doktor_S.]
Encoded date : UTC 2012-11-26 12:38:04
Writing application : mkvmerge v5.8.0 ('No Sleep / Pillow') built on Sep 2 2012 15:37:04
Writing library : libebml v1.2.3 + libmatroska v1.3.0

Video
ID : 1
Format : VC-1
Format profile : AP@L3
Codec ID : WVC1
Codec ID/Hint : Microsoft
Duration : 1h 39mn
Bit rate : 24.4 Mbps
Width : 1 920 pixels
Height : 1 080 pixels
Display aspect ratio : 16:9
Frame rate : 23.976 fps
Chroma subsampling : 4:2:0
Bit depth : 8 bits
Scan type : Progressive
Compression mode : Lossy
Bits/(Pixel*Frame) : 0.491
Stream size : 16.9 GiB (78%)
Default : Yes
Forced : No

Audio #1
ID : 2
Format : DTS
Format/Info : Digital Theater Systems
Codec ID : A_DTS
Duration : 1h 39mn
Bit rate mode : Constant
Bit rate : 754 Kbps
Channel(s) : 6 channels
Channel positions : Front: L C R, Side: L R, LFE
Sampling rate : 48.0 KHz
Bit depth : 24 bits
Compression mode : Lossy
Stream size : 536 MiB (2%)
Title : Rus_Dub
Language : Russian
Default : Yes
Forced : No

Audio #2
ID : 3
Format : DTS
Format/Info : Digital Theater Systems
Format profile : MA / Core
Codec ID : A_DTS
Duration : 1h 39mn
Bit rate mode : Variable
Bit rate : 2 047 Kbps / 1 510 Kbps
Channel(s) : 6 channels
Channel positions : Front: L C R, Side: L R, LFE
Sampling rate : 48.0 KHz
Bit depth : 16 bits
Compression mode : Lossless / Lossy
Title : Rus_AVO_D.Puchkov[Goblin]
Language : Russian
Default : No
Forced : No

Audio #3
ID : 4
Format : DTS
Format/Info : Digital Theater Systems
Format profile : MA / Core
Codec ID : A_DTS
Duration : 1h 39mn
Bit rate mode : Variable
Bit rate : 1 561 Kbps / 1 510 Kbps
Channel(s) : 6 channels
Channel positions : Front: L C R, Side: L R, LFE
Sampling rate : 48.0 KHz
Bit depth : 16 bits
Compression mode : Lossless / Lossy
Title : Rus_AVO_Karpovskiy
Language : Russian
Default : No
Forced : No

Audio #4
ID : 5
Format : DTS
Format/Info : Digital Theater Systems
Format profile : MA / Core
Codec ID : A_DTS
Duration : 1h 39mn
Bit rate mode : Variable
Bit rate : 2 059 Kbps / 1 510 Kbps
Channel(s) : 6 channels
Channel positions : Front: L C R, Side: L R, LFE
Sampling rate : 48.0 KHz
Bit depth : 16 bits
Compression mode : Lossless / Lossy
Title : Eng_Original
Language : English
Default : No
Forced : No

Text #1
ID : 6
Format : UTF-8
Codec ID : S_TEXT/UTF8
Codec ID/Info : UTF-8 Plain Text
Title : forced
Language : Russian
Default : No
Forced : No

Text #2
ID : 7
Format : UTF-8
Codec ID : S_TEXT/UTF8
Codec ID/Info : UTF-8 Plain Text
Title : full
Language : Russian
Default : No
Forced : No

Text #3
ID : 8
Format : UTF-8
Codec ID : S_TEXT/UTF8
Codec ID/Info : UTF-8 Plain Text
Title : D.Puchkov[Goblin]
Language : Russian
Default : No
Forced : No

Text #4
ID : 9
Format : UTF-8
Codec ID : S_TEXT/UTF8
Codec ID/Info : UTF-8 Plain Text
Title : Stevvie
Language : Russian
Default : No
Forced : No

Text #5
ID : 10
Format : UTF-8
Codec ID : S_TEXT/UTF8
Codec ID/Info : UTF-8 Plain Text
Title : full
Language : English
Default : No
Forced : No

Menu
00:00:00.000 : en:Christmas in Milwaukee
00:07:51.971 : en:Down Time
00:10:20.036 : en:"#%&^ Stick?"
00:19:56.069 : en:"What D'you Want?"
00:24:26.006 : en:"Prove It"
00:32:01.711 : en:"Is Granny Spry?"
00:40:48.279 : en:Keeping a Low Profile
00:46:40.964 : en:Santa's New Hid Out
00:52:33.149 : en:Lunch Break
01:01:36.776 : en:"Wanna Play Again"
01:04:23.568 : en:"That's Gonna Sting a Little"
01:11:36.166 : en:"He's Clean"
01:16:28.375 : en:Negotiating
01:22:19.726 : en:Turning a Corner?
01:26:48.828 : en:The Wooden Pickle
01:32:42.390 : en:Last-Minute Adjustments
info [Профиль]  [ЛС] 

Mr.Brightside

Пол: Пол:Муж

Стаж: 7 лет 6 месяцев

Сообщений: 303

Великобритания
Рейтинг

post 28-Дек-2016 15:29 (спустя 19 часов) [-]2[+]

[Цитировать] 

По памяти думал фильм года 06-7,а уже 13 лет прошло....
З.Ы.За релиз спасибо!
info [Профиль]  [ЛС] 

secxromou

Пол: Пол:Муж

Стаж: 6 лет 2 месяца

Сообщений: 31

Россия
Рейтинг

post 01-Янв-2017 14:23 (спустя 3 дня) [-]0[+]

[Цитировать] 

Четкий фильмец, раз десять просмотрен, не меньше. Рекомендую в озвучке Гоблина.
info [Профиль]  [ЛС] 
Показать сообщения:    
Ответить на тему

Текущее время: 22-Фев 05:38

Часовой пояс: GMT + 4



Вы не можете начинать темы
Вы не можете отвечать на сообщения
Вы не можете редактировать свои сообщения
Вы не можете удалять свои сообщения
Вы не можете голосовать в опросах
Вы не можете прикреплять файлы к сообщениям
Вы не можете скачивать файлы