Ошибка

Кубо. Легенда о самурае / Kubo and the Two Strings (Трэвис Найт) [2016, мультфильм, фэнтези, приключения, семейный, BDRip 720p] Dub iTunes + Eng + Sub rus, eng от R.G. TNClub

Ответить на тему
 
Автор Сообщение

L

Пол: Пол:Муж

Стаж: 6 лет 11 месяцев

Сообщений: 11366

Украина
Рейтинг

post 15-Дек-2016 10:18 0[+]

[Цитировать] 

Кубо. Легенда о самурае / Kubo and the Two Strings
«The quest begins»

Страна: США
Жанр: мультфильм, фэнтези, приключения, семейный
Год выпуска: 2016
Продолжительность: 01:41:15
Перевод: Профессиональный (дублированный) [Лицензия iTunes]
Субтитры: русские, английские
Оригинальная дорожка: английский
Главы: есть

Режиссер: Трэвис Найт
В ролях: Арт Паркинсон, Шарлиз Терон, Рэйф Файнс, Джордж Такей, Кэри-Хироюки Тагава, Бренда Ваккаро
Описание: Кубо — наследник великого рода, но когда возвратились духи прошлого, жаждущие мести, на его защиту отважилась встать лишь странная парочка хранителей. И теперь для Кубо единственный шанс на спасение — найти магические доспехи отца, легендарного самурая.

Качество видео: BDRip 720p
Рип от HiDT
Формат видео: MKV
Видео: MPEG-4 AVC Video ~ 5.1 Mbps 1280 х 536 / 23,976 fps / 16:9 / High Profile 4.1
Аудио:
  • Русский: 48 kHz, AC3 Dolby Digital, 3/2 (L,C,R,l,r) + LFE ch, ~384 kbps
  • Английский: 48 kHz, DTS, 3/2 (L,C,R,l,r) + LFE ch, ~1509.00 kbps avg
Формат субтитров: softsub (SRT)
Раздача от &
Уникальный идентификатор : 245625902286129518272078083746322193266 (0xB8C9D3F9F87ABC548B7E72E40D441B72)
Полное имя : E:\ELRippo\Kubo.And.The.Two.Strings.2016.720p.BluRay.DD5.1.x264 -TNClub.mkv
Формат : Matroska
Версия формата : Version 4 / Version 2
Размер файла : 4,98 Гбайт
Продолжительность : 1 ч. 41 м.
Общий поток : 7013 Кбит/сек
Название фильма : Kubo.And.The.Two.Strings.2016.720p.BluRay.DD5.1.x264[HiDT] -TNClub
Дата кодирования : UTC 2016-12-15 06:07:34
Программа кодирования : mkvmerge v8.2.0 ('World of Adventure') 64bit
Библиотека кодирования : libebml v1.3.1 + libmatroska v1.4.2
Обложка : Yes
Attachments : cover.png

Видео
Идентификатор : 1
Формат : AVC
Формат/Информация : Advanced Video Codec
Профиль формата : High@L4.1
Параметр CABAC формата : Да
Параметр ReFrames формата : 12 кадров
Идентификатор кодека : V_MPEG4/ISO/AVC
Продолжительность : 1 ч. 41 м.
Битрейт : 5117 Кбит/сек
Ширина : 1280 пикселей
Высота : 536 пикселей
Соотношение сторон : 2,40:1
Режим частоты кадров : Постоянный
Частота кадров : 23,976 (24000/1001) кадра/сек
Цветовое пространство : YUV
Субдискретизация насыщенности : 4:2:0
Битовая глубина : 8 бит
Тип развёртки : Прогрессивная
Бит/(Пиксели*Кадры) : 0.311
Размер потока : 3,63 Гбайт (73%)
Заголовок : Kubo.And.The.Two.Strings.2016.720p.BluRay.DD5.1.x264[HiDT] -TNClub
Библиотека кодирования : x264 core 148 r2721kMod 72d53ab
Настройки программы : cabac=1 / ref=12 / deblock=1:-3:-3 / analyse=0x3:0x133 / me=umh / subme=10 / psy=1 / fade_compensate=0.00 / psy_rd=1.00:0.00 / mixed_ref=1 / me_range=24 / chroma_me=1 / trellis=2 / 8x8dct=1 / cqm=0 / deadzone=21,11 / fast_pskip=0 / chroma_qp_offset=-2 / threads=12 / lookahead_threads=2 / sliced_threads=0 / nr=0 / decimate=0 / interlaced=0 / bluray_compat=0 / constrained_intra=0 / fgo=0 / bframes=8 / b_pyramid=2 / b_adapt=2 / b_bias=0 / direct=3 / weightb=1 / open_gop=0 / weightp=2 / keyint=250 / keyint_min=23 / scenecut=40 / intra_refresh=0 / rc_lookahead=60 / rc=crf / mbtree=0 / crf=16.0000 / qcomp=0.60 / qpmin=0 / qpmax=69 / qpstep=4 / vbv_maxrate=62500 / vbv_bufsize=78125 / crf_max=0.0 / nal_hrd=none / filler=0 / ip_ratio=1.30 / pb_ratio=1.20 / aq=3:0.75
Язык : English
Default : Да
Forced : Нет
Цветовой диапазон : Limited
Коэффициенты матрицы : BT.709

Аудио #1
Идентификатор : 2
Формат : AC-3
Формат/Информация : Audio Coding 3
Расширение режима : CM (complete main)
Параметр Endianness формата : Big
Идентификатор кодека : A_AC3
Продолжительность : 1 ч. 41 м.
Вид битрейта : Постоянный
Битрейт : 384 Кбит/сек
Каналы : 6 каналов
Расположение каналов : Front: L C R, Side: L R, LFE
Частота : 48,0 КГц
Частота кадров : 31,250 кадров/сек (1536 spf)
Битовая глубина : 16 бит
Метод сжатия : С потерями
Размер потока : 279 Мбайт (5%)
Заголовок : DD5.1@384kbps
Язык : Russian
Default : Да
Forced : Нет

Аудио #2
Идентификатор : 3
Формат : DTS
Формат/Информация : Digital Theater Systems
Режим : 16
Параметр Endianness формата : Big
Идентификатор кодека : A_DTS
Продолжительность : 1 ч. 41 м.
Вид битрейта : Постоянный
Битрейт : 1509 Кбит/сек
Каналы : 6 каналов
Расположение каналов : Front: L C R, Side: L R, LFE
Частота : 48,0 КГц
Частота кадров : 93,750 кадра/сек (512 spf)
Битовая глубина : 24 бит
Метод сжатия : С потерями
Размер потока : 1,07 Гбайт (22%)
Заголовок : DTS 5.1@1509kbps
Язык : English
Default : Нет
Forced : Нет

Текст #1
Идентификатор : 4
Формат : UTF-8
Идентификатор кодека : S_TEXT/UTF8
Идентификатор кодека/Информация : UTF-8 Plain Text
Продолжительность : 1 ч. 32 м.
Битрейт : 72 бит/сек
Count of elements : 1014
Размер потока : 49,3 Кбайт (0%)
Язык : Russian
Default : Нет
Forced : Нет

Текст #2
Идентификатор : 5
Формат : UTF-8
Идентификатор кодека : S_TEXT/UTF8
Идентификатор кодека/Информация : UTF-8 Plain Text
Продолжительность : 1 ч. 32 м.
Битрейт : 41 бит/сек
Count of elements : 1033
Размер потока : 28,2 Кбайт (0%)
Язык : English
Default : Нет
Forced : Нет

Текст #3
Идентификатор : 6
Формат : UTF-8
Идентификатор кодека : S_TEXT/UTF8
Идентификатор кодека/Информация : UTF-8 Plain Text
Продолжительность : 1 ч. 32 м.
Битрейт : 46 бит/сек
Count of elements : 1231
Размер потока : 31,8 Кбайт (0%)
Заголовок : SDH
Язык : English
Default : Нет
Forced : Нет

Меню
00:00:00.000 : en:Chapter 1
00:02:56.510 : en:Chapter 2
00:07:10.639 : en:Chapter 3
00:12:08.895 : en:Chapter 4
00:17:19.956 : en:Chapter 5
00:21:40.799 : en:Chapter 6
00:25:58.390 : en:Chapter 7
00:32:11.555 : en:Chapter 8
00:36:58.049 : en:Chapter 9
00:42:33.509 : en:Chapter 10
00:47:48.657 : en:Chapter 11
00:50:47.670 : en:Chapter 12
00:56:48.947 : en:Chapter 13
01:02:56.314 : en:Chapter 14
01:08:28.271 : en:Chapter 15
01:12:40.606 : en:Chapter 16
01:20:00.629 : en:Chapter 17
01:24:22.266 : en:Chapter 18
01:28:46.071 : en:Chapter 19
01:32:49.564 : en:Chapter 20
Пожалуйста, оставайтесь на раздаче как можно дольше!
Релиз специально для Tapochek.net
Все раздачи R.G.TNClub




Оформление by:GhostRidik
info [Профиль]  [ЛС] 

Tuuari

Стаж: 7 лет 11 месяцев

Сообщений: 905

Рейтинг

post 15-Дек-2016 12:05 (спустя 1 час 47 минут) [-]4[+]

[Цитировать] 

Аццки рекомендую. Как для детей, так и для взрослых)
          
          

_________________
Arbeit macht frei
info [Профиль]  [ЛС] 

Jamato

Пол: Пол:Муж

Стаж: 7 лет 1 месяц

Сообщений: 781

Украина
Рейтинг

post 15-Дек-2016 13:12 (спустя 1 час 6 минут) [-]0[+]

[Цитировать] 

Отличная штука. Обезьяна - мой любимый персонаж Смеюсь

_________________
Экономлю энергию и деньги на С.С.С.Р.
Сигаретах.Спиртном.Сексе.Радости...(с)闇倭
info [Профиль]  [ЛС] 

Big23

Стаж: 6 лет 8 месяцев

Сообщений: 1009

Зимбабве
Рейтинг

post 16-Дек-2016 00:22 (спустя 11 часов) [-]1[+]

[Цитировать] 

Кубо.Семсем

_________________
везде требуются космонавты
info [Профиль]  [ЛС] 

chelentano81

Пол: Пол:Муж

Стаж: 7 лет

Сообщений: 35

Украина
Рейтинг

post 16-Дек-2016 19:11 (спустя 18 часов) [-]0[+]

[Цитировать] 

Очень крутой мультфильм .
info [Профиль]  [ЛС] 

regedi

Пол: Пол:Муж

Стаж: 7 лет 1 месяц

Сообщений: 11

Украина
Рейтинг

post 19-Дек-2016 00:20 (спустя 2 дня 5 часов) [-]0[+]

[Цитировать] 

Годный мультфильм.
info [Профиль]  [ЛС] 

stepa_dv

Пол: Пол:Муж

Стаж: 5 лет 3 месяца

Сообщений: 45

Россия
Рейтинг

post 20-Дек-2016 08:58 (спустя 1 день 8 часов) [-]0[+]

[Цитировать] 

Очень... странный мультик. Интересный, но и детям до 10 очень рекомендую присутствие взрослого рядом при просмотре.
info [Профиль]  [ЛС] 

Tuuari

Стаж: 7 лет 11 месяцев

Сообщений: 905

Рейтинг

post 28-Дек-2016 12:43 (спустя 8 дней) [-]0[+]

[Цитировать] 

stepa_dv
Глупости, мои парни 5+7 смотрели по 2 раза с жутким интересом

_________________
Arbeit macht frei
info [Профиль]  [ЛС] 

Aceko

Пол: Пол:Муж

Стаж: 5 лет 2 месяца

Сообщений: 21

Украина
Рейтинг

post 29-Дек-2016 01:27 (спустя 12 часов) [-]0[+]

[Цитировать] 

Tuuari писал(а):

Аццки рекомендую. Как для детей, так и для взрослых)
          
          
понятно почему анимация иногда топорно выглядит. Мульт kolob_117
info [Профиль]  [ЛС] 

naesimus57

Пол: Пол:Муж

Стаж: 4 года 8 месяцев

Сообщений: 51

Россия
Рейтинг

post 05-Янв-2017 01:47 (спустя 7 дней) [-]0[+]

[Цитировать] 

Вообще годный мульт. Рекомендую всем.

_________________
info [Профиль]  [ЛС] 

post 03-Фев-2017 10:20 (спустя 29 дней) [-]0[+]

Топик был перенесен из форума Новинки 2016-2017 (Web-DL, DVD, HD DVD, Blu-ray, HD Rips) в форум Зарубежное кино от R.G. TNСlub

L
 

post 03-Фев-2017 10:21 (спустя 29 дней) [-]0[+]

Топик был перенесен из форума Зарубежное кино от R.G. TNСlub в форум Мультфильмы от R.G. TNСlub

L
 
Показать сообщения:    
Ответить на тему

Текущее время: 26-Мар 03:42

Часовой пояс: GMT + 4



Вы не можете начинать темы
Вы не можете отвечать на сообщения
Вы не можете редактировать свои сообщения
Вы не можете удалять свои сообщения
Вы не можете голосовать в опросах
Вы не можете прикреплять файлы к сообщениям
Вы не можете скачивать файлы