Ошибка

Аисты / Storks (Николас Столлер, Даг Свитлэнд) [2016 г., мультфильм, фэнтези, комедия, семейный, HDRip]

Ответить на тему
 
Автор Сообщение

Kapolone

Пол: Пол:Муж

Стаж: 4 года 1 месяц

Сообщений: 240

Канада
Рейтинг

post 07-Дек-2016 09:55 1[+]

[Цитировать] 

Аисты / Storks

Год выпуска: 2016
Страна: США
Жанр: мультфильм, фэнтези, комедия, семейный
Продолжительность: 01:26:57
Перевод: Профессиональный (полное дублирование) [Цифровая лицензия iTunes]

Режиссер:
  • Николас Столлер, Даг Свитлэнд


В ролях:
  • Энди Сэмберг, Кэти Краун, Келси Грэммер, Дженнифер Энистон, Тай Бурелл, Антон Старкман, Кигэн-Майкл Ки, Джордан Пил, Дэнни Трехо, Стив Гликман


Описание: Аисты приносят детей… или, во всяком случае, раньше приносили. Теперь же они занимаются доставкой посылок для огромного сайта интернет-продаж. Джуниор, лучший аист в курьерской компании, должен пойти на повышение, но он случайно активирует машину для создания детей и получает очаровательную, но совершенно незапланированную девочку.

Пытаясь доставить эту «посылку» до того, как босс узнает о произошедшем, Джуниор и его подруга Лютик, единственный человек на Горе Аистов, решаются на свою первую доставку ребёнка и отправляются в безумное и насыщенное удивительными открытиями приключение, благодаря которому многие семьи могут стать полными, а аисты — вернуться к своей истинной миссии на Земле.


Качество: HDRip
Формат: AVI
Видео кодек: XviD
Аудио кодек: AC3
Видео: 1856 kb/s, 720x304
Аудио: AC3, 384 kb/s (6 ch)

Код:

General
Complete name                            : A1CTY.2o16.D.HDRip.14OOMB.avi
Format                                   : AVI
Format/Info                              : Audio Video Interleave
File size                                : 1.37 GiB
Duration                                 : 1h 26mn
Overall bit rate                         : 2 250 Kbps
Movie name                               : A1CTY.2o16.D.HDRip.14OOMB
Writing application                      : VirtualDubMod 1.5.10.2 (build 2540/release)
Original source form/Name                : Movie

Video
ID                                       : 0
Format                                   : MPEG-4 Visual
Format profile                           : Advanced Simple@L5
Format settings, BVOP                    : 2
Format settings, QPel                    : No
Format settings, GMC                     : No warppoints
Format settings, Matrix                  : Custom
Codec ID                                 : XVID
Codec ID/Hint                            : XviD
Duration                                 : 1h 26mn
Bit rate                                 : 1 857 Kbps
Width                                    : 720 pixels
Height                                   : 304 pixels
Display aspect ratio                     : 2.35:1
Frame rate                               : 23.976 fps
Color space                              : YUV
Chroma subsampling                       : 4:2:0
Bit depth                                : 8 bits
Scan type                                : Progressive
Compression mode                         : Lossy
Bits/(Pixel*Frame)                       : 0.354
Stream size                              : 1.13 GiB (83%)
Writing library                          : XviD 1.2.1 (UTC 2008-12-04)

Audio
ID                                       : 1
Format                                   : AC-3
Format/Info                              : Audio Coding 3
Mode extension                           : CM (complete main)
Format settings, Endianness              : Big
Codec ID                                 : 2000
Duration                                 : 1h 26mn
Bit rate mode                            : Constant
Bit rate                                 : 384 Kbps
Channel(s)                               : 6 channels
Channel positions                        : Front: L C R, Side: L R, LFE
Sampling rate                            : 48.0 KHz
Bit depth                                : 16 bits
Compression mode                         : Lossy
Delay relative to video                  : 915ms
Stream size                              : 239 MiB (17%)
Alignment                                : Split accross interleaves
Interleave, duration                     : 42 ms (1.00 video frame)
Interleave, preload duration             : 500 ms
info [Профиль]  [ЛС] 

skeiler

Стаж: 7 лет 1 месяц

Сообщений: 113

СССР
Рейтинг

post 07-Дек-2016 15:18 (спустя 5 часов) [-]1[+]

[Цитировать] 

Хороший мульт......смотреть!!!
info [Профиль]  [ЛС] 

Valington

Пол: Пол:Муж

Стаж: 7 лет 5 месяцев

Сообщений: 537

Исландия
Рейтинг

post 07-Дек-2016 17:11 (спустя 1 час 52 минуты) [-]0[+]

[Цитировать] 

ни чего так...кое-где даже смешно...зеленый птиц по идее должен был смешить,но он вообще ни о чем

_________________
Win 10 Pro 64x, intel i5-3470 3.20GHz, 8GB RAM, Ati Radeon HD 6950 2GB + CrossFire Ati Radeon HD 6950 1GB (8х\8х)
info [Профиль]  [ЛС] 

Painkid

Стаж: 2 года 9 месяцев

Сообщений: 7

Рейтинг

post 08-Дек-2016 16:55 (спустя 23 часа) [-]-1[+]

[Цитировать] 

Зачетный мультик, поржал от души =)
info [Профиль]  [ЛС] 

XATOR

Стаж: 7 лет 3 месяца

Сообщений: 17

СССР
Рейтинг

post 08-Дек-2016 18:54 (спустя 1 час 59 минут) [-]2[+]

[Цитировать] 

Мульт хороший, жаль только под конец однополыми парами всё испортили...
Толерасты хреновы...
info [Профиль]  [ЛС] 

umarchanov

Пол: Пол:Муж

Стаж: 4 года 7 месяцев

Сообщений: 1

Рейтинг

post 08-Дек-2016 20:28 (спустя 1 час 33 минуты) [-]0[+]

[Цитировать] 

отличный мульт, парни! рекомендую. давно так приятно не было
info [Профиль]  [ЛС] 

Deadmanrus

Стаж: 7 лет 5 месяцев

Сообщений: 58

Рейтинг

post 09-Дек-2016 14:04 (спустя 17 часов) [-]1[+]

[Цитировать] 

сходили в кино вчетвером... на первой половине мультфильма было стойкое желание свалить оттуда у всех. только волки рассмешили и пингвины
info [Профиль]  [ЛС] 
Показать сообщения:    
Ответить на тему

Текущее время: 28-Фев 16:26

Часовой пояс: GMT + 4



Вы не можете начинать темы
Вы не можете отвечать на сообщения
Вы не можете редактировать свои сообщения
Вы не можете удалять свои сообщения
Вы не можете голосовать в опросах
Вы не можете прикреплять файлы к сообщениям
Вы не можете скачивать файлы