Ошибка

До окончания фрилича осталось:


Синдбад. Пираты семи штормов (Владлен Барбэ) [2016 г., Россия, Мультфильм, WEB-DLRip] iTunes

Ответить на тему
 
Автор Сообщение

Kapolone

Пол: Пол:Муж

Стаж: 4 года 3 месяца

Сообщений: 346

Канада
Рейтинг

post 29-Ноя-2016 10:04 0[+]

[Цитировать] 

Синдбад. Пираты семи штормов

Год выхода: 2016
Страна: Россия
Жанр: Мультфильм
Продолжительность: 01:17:30
Перевод: Не требуется
Субтитры: Отсутствуют
Режиссер: Владлен Барбэ
В ролях: Андрей Лёвин, Катерина Шпица, Дмитрий Нагиев, Марина Лисовец, Диомид Виноградов, Юрий Стоянов, Андрей Кайков, Эдуард Радзюкевич, Игорь Лифанов, Илья Лыков
О фильме: Синдбад, молодой веселый пират, не очень удачлив в пиратском промысле — за год ему и его команде не удалось захватить ни одного корабля. Но судьба улыбается Синдбаду: старик Антиох показывает ему старинную карту и предлагает плыть на остров Скелета, где хранятся сокровища. Синдбад не знает, что этот Антиох — волшебник, который преследует свои корыстные планы...
Качество: WEB-DLRip
Формат: AVI
Видео кодек: XviD
Аудио кодек: AC3
Видео: XviD, 2132 Кбит/с, 720x384
Аудио: AC3, 6 ch, 384 Кбит/с

Код:

General
Complete name                            : SenDBa.2O16.O.WEB-DLRip.14OOMB.avi
Format                                   : AVI
Format/Info                              : Audio Video Interleave
File size                                : 1.37 GiB
Duration                                 : 1h 17mn
Overall bit rate                         : 2 525 Kbps
Writing application                      : VirtualDubMod 1.5.10.2 (build 2540/release)
Writing library                          : VirtualDubMod build 2540/release

Video
ID                                       : 0
Format                                   : MPEG-4 Visual
Format profile                           : Advanced Simple@L5
Format settings, BVOP                    : 2
Format settings, QPel                    : No
Format settings, GMC                     : No warppoints
Format settings, Matrix                  : Default (MPEG)
Codec ID                                 : XVID
Codec ID/Hint                            : XviD
Duration                                 : 1h 17mn
Bit rate                                 : 2 132 Kbps
Width                                    : 720 pixels
Height                                   : 384 pixels
Display aspect ratio                     : 1.85:1
Frame rate                               : 24.000 fps
Color space                              : YUV
Chroma subsampling                       : 4:2:0
Bit depth                                : 8 bits
Scan type                                : Progressive
Compression mode                         : Lossy
Bits/(Pixel*Frame)                       : 0.321
Stream size                              : 1.15 GiB (84%)
Writing library                          : XviD 1.2.1 (UTC 2008-12-04)

Audio
ID                                       : 1
Format                                   : AC-3
Format/Info                              : Audio Coding 3
Mode extension                           : CM (complete main)
Format settings, Endianness              : Big
Codec ID                                 : 2000
Duration                                 : 1h 17mn
Bit rate mode                            : Constant
Bit rate                                 : 384 Kbps
Channel(s)                               : 6 channels
Channel positions                        : Front: L C R, Side: L R, LFE
Sampling rate                            : 48.0 KHz
Bit depth                                : 16 bits
Compression mode                         : Lossy
Stream size                              : 213 MiB (15%)
Alignment                                : Split accross interleaves
Interleave, duration                     : 42 ms (1.00 video frame)
Interleave, preload duration             : 500 ms

info [Профиль]  [ЛС] 
Показать сообщения:    
Ответить на тему

Текущее время: 25-Май 07:03

Часовой пояс: GMT + 4



Вы не можете начинать темы
Вы не можете отвечать на сообщения
Вы не можете редактировать свои сообщения
Вы не можете удалять свои сообщения
Вы не можете голосовать в опросах
Вы не можете прикреплять файлы к сообщениям
Вы не можете скачивать файлы