Ошибка

Гранд Тур / The Grand Tour / Сезон: 1 / Серии 1-2 из 12 / Amazon [2016., Авто-шоу, WEB-DLRip 1080p] MVO (Jaskier)

Ответить на тему
 
Автор Сообщение

L

Пол: Пол:Муж

Стаж: 6 лет 7 месяцев

Сообщений: 10757

Украина
Рейтинг

post 20-Ноя-2016 10:40 6[+]

[Цитировать] 

Гранд Тур / The Grand Tour

Страна: Великобритания
Ведущие: Джереми Кларксон, Ричард Хаммонд и Джэймс Мэй
Дата выпуска: 2016
Жанр: Авто-шоу
Продолжительность: ~ 01:10:00
Перевод: Профессиональный (многоголосый закадровый) Студия Jaskier
Описание: Предлагаем вашему вниманию долгожданный многими фанатами автомобилей проект с легендарными ведущими Джереми Кларксоном, Джеймом Мэйем и Ричардом Хаммондом. В центре внимания проекта оказываются автомобили со всего света. Ведущие отправляются в большое путешествие по миру, чтобы найти раритетные модели авто или же невероятные суперкары. В каждом новом городе будет снят очередной эпизод этого шоу, а ведущие проведут тест драйв местных автомобилей, рассказав о них кое-что по-настоящему интересное. На улице любителей "Топ Гира" огромный праздник - "Гранд Тур" вашему вниманию!
Сэмпл
Качество: WEB-DL 1080p
Формат: MKV
Видео кодек: h.264
Аудио кодек: AC3, EAC3
Видео: AVC, 1920×1080 at 23.976 fps, ~8200 kbps avg, ~0.163 bit/pixel
Аудио Rus: Dolby AC3 48000Hz 5.1 384 Kbps Русский
Аудио Eng: Dolby E-AC3 48000Hz 5.1 384 Kbps Оригинал (Английский)
Реклама: Присутствует звуковая (два раза в начале и конце по 12 сек.)
Уникальный идентификатор : 186058073240922686576101106652844987361 (0x8BF97B4149C683D48FD04309DB0113E1)
Полное имя : E:\V\The Grand Tour. Season 1 (WEBRip l 1080p l Jaskier)\The.Grand.Tour.2016.S01E01.The.Holy.Trinity.1080p.AMZN.WEBRip.DD5.1.x264-Jaskier.mkv
Формат : Matroska
Версия формата : Version 2
Размер файла : 4,64 Гбайт
Продолжительность : 1 ч. 11 м.
Общий поток : 9337 Кбит/сек
Дата кодирования : UTC 2016-11-19 18:50:38
Программа кодирования : mkvmerge v5.4.0 ('Piper') built on Mar 10 2012 13:34:39
Библиотека кодирования : libebml v1.2.3 + libmatroska v1.3.0

Видео
Идентификатор : 1
Формат : AVC
Формат/Информация : Advanced Video Codec
Профиль формата : High@L4.1
Параметр CABAC формата : Да
Параметр ReFrames формата : 4 кадра
Идентификатор кодека : V_MPEG4/ISO/AVC
Продолжительность : 1 ч. 11 м.
Битрейт : 8127 Кбит/сек
Ширина : 1920 пикселей
Высота : 1080 пикселей
Соотношение сторон : 16:9
Режим частоты кадров : Постоянный
Частота кадров : 23,976 (24000/1001) кадра/сек
Цветовое пространство : YUV
Субдискретизация насыщенности : 4:2:0
Битовая глубина : 8 бит
Тип развёртки : Прогрессивная
Бит/(Пиксели*Кадры) : 0.163
Размер потока : 4,04 Гбайт (87%)
Библиотека кодирования : x264 core 144 r2525 40bb568
Настройки программы : cabac=1 / ref=4 / deblock=1:-3:-3 / analyse=0x3:0x133 / me=umh / subme=10 / psy=1 / psy_rd=1.00:0.00 / mixed_ref=1 / me_range=48 / chroma_me=1 / trellis=2 / 8x8dct=1 / cqm=0 / deadzone=21,11 / fast_pskip=0 / chroma_qp_offset=-2 / threads=6 / lookahead_threads=1 / sliced_threads=0 / nr=0 / decimate=0 / interlaced=0 / bluray_compat=0 / constrained_intra=0 / bframes=8 / b_pyramid=2 / b_adapt=2 / b_bias=0 / direct=3 / weightb=1 / open_gop=0 / weightp=2 / keyint=250 / keyint_min=23 / scenecut=40 / intra_refresh=0 / rc=crf / mbtree=0 / crf=18.0 / qcomp=0.60 / qpmin=0 / qpmax=69 / qpstep=4 / ip_ratio=1.30 / pb_ratio=1.20 / aq=3:0.80
Язык : English
Default : Да
Forced : Нет

Аудио #1
Идентификатор : 2
Формат : AC-3
Формат/Информация : Audio Coding 3
Расширение режима : CM (complete main)
Параметр Endianness формата : Big
Идентификатор кодека : A_AC3
Продолжительность : 1 ч. 11 м.
Вид битрейта : Постоянный
Битрейт : 384 Кбит/сек
Каналы : 6 каналов
Расположение каналов : Front: L C R, Side: L R, LFE
Частота : 48,0 КГц
Частота кадров : 31,250 кадров/сек (1536 spf)
Битовая глубина : 16 бит
Метод сжатия : С потерями
Размер потока : 195 Мбайт (4%)
Язык : Russian
Default : Да
Forced : Нет

Аудио #2
Идентификатор : 3
Формат : E-AC-3
Формат/Информация : Enhanced Audio Coding 3
Параметр Endianness формата : Big
Идентификатор кодека : A_EAC3
Продолжительность : 1 ч. 11 м.
Вид битрейта : Постоянный
Битрейт : 640 Кбит/сек
Каналы : 6 каналов
Расположение каналов : Front: L C R, Side: L R, LFE
Частота : 48,0 КГц
Частота кадров : 187,500 кадров/сек (256 spf)
Метод сжатия : С потерями
Размер потока : 325 Мбайт (7%)
Язык : English
Default : Нет
Forced : Нет

Текст
Идентификатор : 4
Формат : UTF-8
Идентификатор кодека : S_TEXT/UTF8
Идентификатор кодека/Информация : UTF-8 Plain Text
Язык : English
Default : Нет
Forced : Нет
info [Профиль]  [ЛС] 

Kolyabus

Пол: Пол:Муж

Стаж: 7 лет 2 месяца

Сообщений: 93

Россия
Рейтинг

post 20-Ноя-2016 11:11 (спустя 31 минута) [-]7[+]

[Цитировать] 

Шикарно! Автору респект!
info [Профиль]  [ЛС] 

JIbICbIU

Стаж: 6 лет 7 месяцев

Сообщений: 42

Рейтинг

post 20-Ноя-2016 13:20 (спустя 2 часа 8 минут) [-]2[+]

[Цитировать] 

Юхуууу, они вернулись!
info [Профиль]  [ЛС] 

Dan22e

Пол: Пол:Муж

Стаж: 5 лет 4 месяца

Сообщений: 61

Украина
Рейтинг

post 20-Ноя-2016 13:27 (спустя 7 минут) [-]3[+]

[Цитировать] 

Это еще круче, чем если бы Курт Кобейн ожил, и выпистил новый альбом.
info [Профиль]  [ЛС] 

iscreamox

Стаж: 6 лет 8 месяцев

Сообщений: 28

Рейтинг

post 20-Ноя-2016 15:45 (спустя 2 часа 18 минут) [-]1[+]

[Цитировать] 

Гранд Тур по настоящему крут! Снято шикарно!
info [Профиль]  [ЛС] 

Leliil

Пол: Пол:Муж

Стаж: 5 лет 3 месяца

Сообщений: 832

Россия
Рейтинг

post 20-Ноя-2016 16:43 (спустя 57 минут) [-]-3[+]

[Цитировать] 

а меньше будет размерчик?) а то 12 серий так и до 48 гб дойдут

_________________
info [Профиль]  [ЛС] 

L

Пол: Пол:Муж

Стаж: 6 лет 7 месяцев

Сообщений: 10757

Украина
Рейтинг

post 20-Ноя-2016 17:07 (спустя 23 минуты) [-]0[+]

[Цитировать] 

Leliil
Меньше есть раздача рядом.

_________________
info [Профиль]  [ЛС] 

steplo

Пол: Пол:Муж

Стаж: 6 лет 8 месяцев

Сообщений: 48

Россия
Рейтинг

post 21-Ноя-2016 02:50 (спустя 9 часов) [-]0[+]

[Цитировать] 

Потрясающая передача получилась. Снято шикарно. С нетерпением жду следующие выпуски.

_________________
info [Профиль]  [ЛС] 

Leliil

Пол: Пол:Муж

Стаж: 5 лет 3 месяца

Сообщений: 832

Россия
Рейтинг

post 21-Ноя-2016 05:26 (спустя 2 часа 35 минут) [-]0[+]

[Цитировать] 

L писал(а):

Leliil
Меньше есть раздача рядом.
там и перевод другой и сэмпла нет :/

_________________
info [Профиль]  [ЛС] 

L

Пол: Пол:Муж

Стаж: 6 лет 7 месяцев

Сообщений: 10757

Украина
Рейтинг

post 21-Ноя-2016 11:00 (спустя 5 часов) [-]0[+]

[Цитировать] 

Leliil
держи с Гирсами поменьше
http://tapochek.net/viewtopic.php?p=2351371#2351371

_________________
info [Профиль]  [ЛС] 

L

Пол: Пол:Муж

Стаж: 6 лет 7 месяцев

Сообщений: 10757

Украина
Рейтинг

post 27-Ноя-2016 22:51 (спустя 6 дней) [-]2[+]

[Цитировать] 

+ 2 серия

_________________
info [Профиль]  [ЛС] 

Dangor

Пол: Пол:Муж

Стаж: 6 лет 8 месяцев

Сообщений: 42

Россия
Рейтинг

post 27-Ноя-2016 23:11 (спустя 20 минут) [-]5[+]

[Цитировать] 

Спасибо!

_________________
info [Профиль]  [ЛС] 

emil_sh

Пол: Пол:Муж

Стаж: 4 года 11 месяцев

Сообщений: 30

Россия
Рейтинг

post 28-Ноя-2016 04:44 (спустя 5 часов) [-]2[+]

[Цитировать] 

Перезалейте сэмпл, пожалуйста
info [Профиль]  [ЛС] 
Показать сообщения:    
Ответить на тему

Текущее время: 03-Дек 13:33

Часовой пояс: GMT + 4



Вы не можете начинать темы
Вы не можете отвечать на сообщения
Вы не можете редактировать свои сообщения
Вы не можете удалять свои сообщения
Вы не можете голосовать в опросах
Вы не можете прикреплять файлы к сообщениям
Вы не можете скачивать файлы