Ошибка

Южный Парк / South Park (Сезон 20, Серии 6 из 10) [2016 г., мультфильм, комедия, WEB-DLRip 1080p] Кубик в Кубе + Original + Eng Sub

Ответить на тему
 
Автор Сообщение

Basketballman

Пол: Пол:Муж

Стаж: 7 лет 1 месяц

Сообщений: 280

Россия
Рейтинг

post 18-Ноя-2016 07:39 0[+]

[Цитировать] 

Южный Парк / South Park

Год выпуска: 2016
Страна: США
Жанр: мультфильм, комедия
Продолжительность: 00:22:00
Перевод: профессиональный (двухголосый закадровый) [Кубик в Кубе]
Субтитры: английские
Режиссер:
  • Трей Паркер, Эрик Сточ, Мэтт Стоун
Роли озвучивали:
  • Трей Паркер, Мэтт Стоун, Мона Маршалл, Айзек Хейз, Эйприл Стюарт, Элиза Шнайдер, Мэри Кэй Бергман, Эдриан Бирд, Дженнифер Хауэлл, Кайл Маккаллок

Описание: Второй по длительности анимационный сериал в истории американского телевидения после сериала «Симпсоны». Основу сюжета составляют приключения четырёх мальчиков и их друзей, живущих в маленьком городке Саус-Парк, штат Колорадо. Сериал высмеивает недостатки американской культуры и текущие мировые события, а также подвергает критике множество глубоких убеждений и табу посредством пародии и чёрного юмора. «Южный парк» выходит поздно вечером и позиционируется как мультфильм для взрослых.


Качество: WEB-DLRip 1080p
Формат: MKV
Видео кодек: MPEG-4
Аудио кодек: AC-3
Видео: 1920x1080, 23.976 fps, 2238 Kbps
Аудио 1: Russian: AC-3, 2 ch, 192 Kbps
Аудио 2: English: AC-3, 2 ch, 192 Kbps
Субтитры: SRT
01 Member Berries "Ягодки-вспоминашки"
02 Skank Hunt "Охотник на шалав"
03 The Damned "Проклятый"
04 Wieners Out "Сосиски наголо"
05 Douche and a Danish "Клизма и датчане"
06 Fort Collins "Форт-Коллинс"
General
Unique ID : 250733764216865892119474445844980520755 (0xBCA191035A798A3D90E3A79BBD355733)
Complete name : D:\Кино\South.Park.S20.1080p.KvK.CasStudio.TV\South.Park.S20E01.Member.Berries.Uncensored.1080p.WEBRip.KvK.CasStudio.TV.mkv
Format : Matroska
Format version : Version 4 / Version 2
File size : 424 MiB
Duration : 22mn 10s
Overall bit rate mode : Variable
Overall bit rate : 2 675 Kbps
Movie name : South Park 20x01 (Member Berries) - release by messafan for CasStudio.TV
Encoded date : UTC 2016-09-17 21:46:34
Writing application : mkvmerge v6.7.0 ('Back to the Ground') 64bit built on Jan 8 2014 15:10:52
Writing library : libebml v1.3.0 + libmatroska v1.4.1

Video
ID : 1
Format : AVC
Format/Info : Advanced Video Codec
Format profile : High@L4.0
Format settings, CABAC : Yes
Format settings, ReFrames : 4 frames
Codec ID : V_MPEG4/ISO/AVC
Duration : 22mn 10s
Bit rate mode : Variable
Bit rate : 2 238 Kbps
Maximum bit rate : 15.0 Mbps
Width : 1 920 pixels
Height : 1 080 pixels
Display aspect ratio : 16:9
Frame rate mode : Constant
Frame rate : 23.976 fps
Color space : YUV
Chroma subsampling : 4:2:0
Bit depth : 8 bits
Scan type : Progressive
Bits/(Pixel*Frame) : 0.045
Stream size : 355 MiB (84%)
Title : South.Park.S20E01.Member.Berries.Uncensored.1080p.AMZN.WEBRip.DD2.0.x264-CasStudio
Language : English
Default : Yes
Forced : No
Color primaries : BT.709
Transfer characteristics : BT.709
Matrix coefficients : BT.709

Audio #1
ID : 2
Format : AC-3
Format/Info : Audio Coding 3
Mode extension : CM (complete main)
Format settings, Endianness : Big
Codec ID : A_AC3
Duration : 22mn 10s
Bit rate mode : Constant
Bit rate : 192 Kbps
Channel(s) : 2 channels
Channel positions : Front: L R
Sampling rate : 48.0 KHz
Bit depth : 16 bits
Compression mode : Lossy
Stream size : 30.5 MiB (7%)
Title : KvK 2.0
Language : Russian
Default : Yes
Forced : No

Audio #2
ID : 3
Format : AC-3
Format/Info : Audio Coding 3
Mode extension : CM (complete main)
Format settings, Endianness : Big
Codec ID : A_AC3
Duration : 22mn 10s
Bit rate mode : Constant
Bit rate : 192 Kbps
Channel(s) : 2 channels
Channel positions : Front: L R
Sampling rate : 48.0 KHz
Bit depth : 16 bits
Compression mode : Lossy
Stream size : 30.5 MiB (7%)
Title : English 2.0
Language : English
Default : No
Forced : No

Text
ID : 4
Format : UTF-8
Codec ID : S_TEXT/UTF8
Codec ID/Info : UTF-8 Plain Text
Title : Eng sub
Language : English
Default : No
Forced : No
info [Профиль]  [ЛС] 

naispy2

Стаж: 6 лет 9 месяцев

Сообщений: 269

Рейтинг

post 18-Ноя-2016 20:01 (спустя 12 часов) [-]2[+]

[Цитировать] 

Еще один отличный сезон.
info [Профиль]  [ЛС] 

Arsenal

Пол: Пол:Муж

Стаж: 6 лет 2 месяца

Сообщений: 480

Белоруссия
Рейтинг

post 18-Ноя-2016 23:08 (спустя 3 часа) [-]0[+]

[Цитировать] 

В описании ошибка . В одном из сезона СП они переходят в 4ый класс .
info [Профиль]  [ЛС] 

Basketballman

Пол: Пол:Муж

Стаж: 7 лет 1 месяц

Сообщений: 280

Россия
Рейтинг

post 19-Ноя-2016 02:09 (спустя 3 часа) [-]0[+]

[Цитировать] 

Arsenal писал(а):

В описании ошибка . В одном из сезона СП они переходят в 4ый класс .
Изменил описание Подмигиваю

_________________
info [Профиль]  [ЛС] 
Показать сообщения:    
Ответить на тему

Текущее время: 06-Дек 18:03

Часовой пояс: GMT + 4



Вы не можете начинать темы
Вы не можете отвечать на сообщения
Вы не можете редактировать свои сообщения
Вы не можете удалять свои сообщения
Вы не можете голосовать в опросах
Вы не можете прикреплять файлы к сообщениям
Вы не можете скачивать файлы