Ошибка

Южный Парк / South Park / Сезон: 19 / Серии: 1-10 (10) (Мэтт Стоун, Трэй Паркер / Matt Stone, Trey Parker) [2015, Комедия, сатира, WEB-DL 720p] x2 DVO Paramount Comedy + Кубик в Кубе + VO L0cDoG + x2 MVO Jaskier + IdeaFilm + Original + Rus, Eng Sub

Ответить на тему
 
Автор Сообщение

N

Пол: Пол:Муж

Стаж: 4 года 11 месяцев

Сообщений: 216

Россия
Рейтинг

post 18-Ноя-2016 01:41 0[+]

[Цитировать] 

Южный Парк

South Park


Год выпуска: 2015
Страна: США
Жанр: комедия, мультсериал
Продолжительность: ~ 00:20:00 x 10
Перевод 1: Профессиональный двухголосый закадровый [Paramount Comedy] (1-10 серии)
Перевод 2: Профессиональный двухголосый закадровый [Кубик в Кубе] (1-10 серии)
Перевод 3: Одноголосый закадровый [L0cDoG] (1-10 серии)
Перевод 4: Профессиональный многоголосый закадровый [Jaskier] (1-10 серии)
Перевод 5: Профессиональный многоголосый закадровый [IdeaFilm] (1-10 серии)
Субтитры 1: русские, Stevvie (1-10 серии)
Субтитры 2: русские, Анастасия Кисиленко (1-2 серии)
Субтитры 3: английские (1-10 серии)
Режиссёр: Мэтт Стоун, Трей Паркер
Описание:
Южный Парк / South Park — американский мультсериал, созданный Мэттом Стоуном и Треем Паркером. Иногда название переводится также как «Саут-Парк» или «Саус-Парк». Выпускается кабельным телеканалом Comedy Central с 1997 года. Основу сюжета составляют приключения четырёх мальчиков и их друзей, живущих в маленьком городке Саут-Парк, штат Колорадо. Сериал высмеивает недостатки американской культуры и текущие мировые события, а также подвергает критике множество глубоких убеждений и табу посредством пародии и чёрного юмора. «Южный Парк» выходит поздно вечером и позиционируется как мультфильм для взрослых.

Качество: WEB-DL 720p
Формат: MKV
Видео: 1280x718, 23.976 fps, AVC (H264), ~4 Mbps
Аудио 1: AC3, 48 kHz, 2 ch, 192 kbps [Русский, Paramount Comedy]
Аудио 2: AC3, 48 kHz, 2 ch, 192 kbps [Русский, Кубик в Кубе]
Аудио 3: AC3, 48 kHz, 2 ch, 192 kbps [Русский, L0cDoG]
Аудио 4: AC3, 48 kHz, 2 ch, 192 kbps [Русский, Jaskier]
Аудио 5: AC3, 48 kHz, 2 ch, 192 kbps [Русский, IdeaFilm]
Аудио 6: AAC, 48 kHz, 2 ch, 160 kbps [Английский]

Код:

General
Unique ID                                : 220425730011145838898320815001765430034 (0xA5D4738E91CBE9299A6653FDF0604312)
Complete name                            : D:\Загрузки\South Park 19\South.Park.s19e01.720p.WEB-DL.Rus.Eng.Sub.mkv
Format                                   : Matroska
Format version                           : Version 4 / Version 2
File size                                : 813 MiB
Duration                                 : 22mn 9s
Overall bit rate                         : 5 129 Kbps
Movie name                               : South Park - Season 19 Episode 01 - Stunning and Brave / Ослепительная и отважная
Encoded date                             : UTC 2015-09-27 11:28:25
Writing application                      : mkvmerge v7.7.0 ('Six Voices') 32bit built on Feb 28 2015 23:23:00
Writing library                          : libebml v1.3.1 + libmatroska v1.4.2
_STATISTICS_WRITING_APP                  : mkvmerge v7.7.0 ('Six Voices') 32bit built on Feb 28 2015 23:23:00
_STATISTICS_WRITING_DATE_UTC             : 2015-09-27 11:28:25
_STATISTICS_TAGS                         : BPS DURATION NUMBER_OF_FRAMES NUMBER_OF_BYTES
DURATION                                 : 00:22:09.152000000
NUMBER_OF_FRAMES                         : 41536
NUMBER_OF_BYTES                          : 31899648

Video
ID                                       : 1
Format                                   : AVC
Format/Info                              : Advanced Video Codec
Format profile                           : High@L3.1
Format settings, CABAC                   : No
Format settings, ReFrames                : 2 frames
Codec ID                                 : V_MPEG4/ISO/AVC
Duration                                 : 22mn 9s
Width                                    : 1 280 pixels
Height                                   : 718 pixels
Display aspect ratio                     : 16:9
Frame rate mode                          : Constant
Frame rate                               : 23.976 fps
Color space                              : YUV
Chroma subsampling                       : 4:2:0
Bit depth                                : 8 bits
Scan type                                : Progressive
Title                                    : South Park - S19E01
Language                                 : English
Default                                  : Yes
Forced                                   : No
Color primaries                          : BT.709
Transfer characteristics                 : BT.709
Matrix coefficients                      : BT.709

Audio #1
ID                                       : 2
Format                                   : AC-3
Format/Info                              : Audio Coding 3
Mode extension                           : CM (complete main)
Format settings, Endianness              : Big
Codec ID                                 : A_AC3
Duration                                 : 22mn 9s
Bit rate mode                            : Constant
Bit rate                                 : 192 Kbps
Channel(s)                               : 2 channels
Channel positions                        : Front: L R
Sampling rate                            : 48.0 KHz
Bit depth                                : 16 bits
Compression mode                         : Lossy
Stream size                              : 30.4 MiB (4%)
Title                                    : DVO Paramount Comedy
Language                                 : Russian
Default                                  : Yes
Forced                                   : No

Audio #2
ID                                       : 3
Format                                   : AC-3
Format/Info                              : Audio Coding 3
Mode extension                           : CM (complete main)
Format settings, Endianness              : Big
Codec ID                                 : A_AC3
Duration                                 : 22mn 9s
Bit rate mode                            : Constant
Bit rate                                 : 192 Kbps
Channel(s)                               : 2 channels
Channel positions                        : Front: L R
Sampling rate                            : 48.0 KHz
Bit depth                                : 16 bits
Compression mode                         : Lossy
Stream size                              : 30.4 MiB (4%)
Title                                    : DVO Кубик в Кубе
Language                                 : Russian
Default                                  : No
Forced                                   : No

Audio #3
ID                                       : 4
Format                                   : AC-3
Format/Info                              : Audio Coding 3
Mode extension                           : CM (complete main)
Format settings, Endianness              : Big
Codec ID                                 : A_AC3
Duration                                 : 22mn 9s
Bit rate mode                            : Constant
Bit rate                                 : 192 Kbps
Channel(s)                               : 2 channels
Channel positions                        : Front: L R
Sampling rate                            : 48.0 KHz
Bit depth                                : 16 bits
Compression mode                         : Lossy
Stream size                              : 30.4 MiB (4%)
Title                                    : VO L0cDoG
Language                                 : Russian
Default                                  : No
Forced                                   : No

Audio #4
ID                                       : 5
Format                                   : AC-3
Format/Info                              : Audio Coding 3
Mode extension                           : CM (complete main)
Format settings, Endianness              : Big
Codec ID                                 : A_AC3
Duration                                 : 22mn 9s
Bit rate mode                            : Constant
Bit rate                                 : 192 Kbps
Channel(s)                               : 2 channels
Channel positions                        : Front: L R
Sampling rate                            : 48.0 KHz
Bit depth                                : 16 bits
Compression mode                         : Lossy
Stream size                              : 30.4 MiB (4%)
Title                                    : MVO Jaskier
Language                                 : Russian
Default                                  : No
Forced                                   : No

Audio #5
ID                                       : 6
Format                                   : AC-3
Format/Info                              : Audio Coding 3
Mode extension                           : CM (complete main)
Format settings, Endianness              : Big
Codec ID                                 : A_AC3
Duration                                 : 22mn 9s
Bit rate mode                            : Constant
Bit rate                                 : 192 Kbps
Channel(s)                               : 2 channels
Channel positions                        : Front: L R
Sampling rate                            : 48.0 KHz
Bit depth                                : 16 bits
Compression mode                         : Lossy
Stream size                              : 30.4 MiB (4%)
Title                                    : MVO IdeaFilm
Language                                 : Russian
Default                                  : No
Forced                                   : No

Audio #6
ID                                       : 7
Format                                   : AAC
Format/Info                              : Advanced Audio Codec
Format profile                           : LC
Codec ID                                 : A_AAC
Duration                                 : 22mn 9s
Channel(s)                               : 2 channels
Channel positions                        : Front: L R
Sampling rate                            : 48.0 KHz
Compression mode                         : Lossy
Title                                    : English
Language                                 : English
Default                                  : No
Forced                                   : No

Text #1
ID                                       : 8
Format                                   : UTF-8
Codec ID                                 : S_TEXT/UTF8
Codec ID/Info                            : UTF-8 Plain Text
Title                                    : Анастасия Кисиленко (Medveditsa)
Language                                 : Russian
Default                                  : No
Forced                                   : No

Text #2
ID                                       : 9
Format                                   : UTF-8
Codec ID                                 : S_TEXT/UTF8
Codec ID/Info                            : UTF-8 Plain Text
Title                                    : Stevvie
Language                                 : Russian
Default                                  : No
Forced                                   : No

Text #3
ID                                       : 10
Format                                   : UTF-8
Codec ID                                 : S_TEXT/UTF8
Codec ID/Info                            : UTF-8 Plain Text
Title                                    : Eng sub
Language                                 : English
Default                                  : No
Forced                                   : No

info [Профиль]  [ЛС] 

qwep5

Пол: Пол:Муж

Стаж: 4 года

Сообщений: 144

Россия
Рейтинг

post 18-Ноя-2016 15:22 (спустя 13 часов) [-]-1[+]

[Цитировать] 

раздающий дай докачать 20%
info [Профиль]  [ЛС] 
Показать сообщения:    
Ответить на тему

Текущее время: 06-Дек 18:07

Часовой пояс: GMT + 4



Вы не можете начинать темы
Вы не можете отвечать на сообщения
Вы не можете редактировать свои сообщения
Вы не можете удалять свои сообщения
Вы не можете голосовать в опросах
Вы не можете прикреплять файлы к сообщениям
Вы не можете скачивать файлы