Ошибка

Боруто: День, когда Наруто стал Хокаге / Boruto: The Day Naruto Became Hokage [OVA] [2015] [приключения, комедия, боевые искусства, сёнэн] [BDRip] [1080p] [Любительский (JAP)]

Ответить на тему
 
Автор Сообщение

xetrin

Пол: Пол:Муж

Стаж: 4 года 7 месяцев

Сообщений: 56

Россия
Рейтинг

post 06-Ноя-2016 03:13 0[+]

[Цитировать] 


Боруто: День, когда Наруто стал Хокаге / Boruto: The Day Naruto Became Hokage

Страна: Япония
Год выпуска: 2015 г.
Жанр: приключения, комедия, боевые искусства, сёнэн
Тип: OVA
Продолжительность: 00:10:26
Режиссер: Ямасита Хироюки
Озвучивание: многоголосое (муж./жен.): Lupin, Silv, Itashi [AniLibria.TV]
Студия:
Описание: Серия (эпилог к фильму Боруто), которая рассказывает нам о дне, когда Наруто стал Хокаге.
Качество: BDRip
Тип релиза: Без хардсаба
Формат видео: MKV
Релиз/Автор рипа: xetrin [tr.anidub.com]
Ретайминг звука: xetrin
Видео: H.264 | 1920x1080 | 17 Mb/s | 23.976 fps | 8 bits
Аудио 1: AAC | Встроенное | 192 kb/s | 48kHz | 2 ch | Язык: Русский
Аудио 2: PCM | Встроенное | 2 304 kb/s | 48kHz | 2 ch | Язык: Японский
General
Unique ID : 234813363986512573093251342885163146006 (0xB0A768ADF55084C7A22BEA8F266C9B16)
Complete name : F:\Аниме\[xetrin]_Boruto_-_The_Day_Naruto_Became_Hokage_[2015]_[OVA]_[BDRip_1080p_x264_AAC].mkv
Format : Matroska
Format version : Version 4 / Version 2
File size : 1.39 GiB
Duration : 10 min
Overall bit rate : 19.0 Mb/s
Encoded date : UTC 2016-11-05 22:13:24
Writing application : mkvmerge v9.2.0 ('Photograph') 64bit
Writing library : libebml v1.3.3 + libmatroska v1.4.4

Video
ID : 1
Format : AVC
Format/Info : Advanced Video Codec
Format profile : High@L4.1
Format settings, CABAC : Yes
Format settings, ReFrames : 4 frames
Codec ID : V_MPEG4/ISO/AVC
Duration : 10 min
Bit rate : 17.0 Mb/s
Width : 1 920 pixels
Height : 1 080 pixels
Display aspect ratio : 16:9
Frame rate mode : Constant
Frame rate : 23.976 (24000/1001) FPS
Color space : YUV
Chroma subsampling : 4:2:0
Bit depth : 8 bits
Scan type : Progressive
Bits/(Pixel*Frame) : 0.342
Stream size : 1.20 GiB (87%)
Writing library : x264 core 148 r2705 3f5ed56
Encoding settings : cabac=1 / ref=3 / deblock=1:0:0 / analyse=0x3:0x113 / me=hex / subme=7 / psy=1 / psy_rd=1.00:0.00 / mixed_ref=1 / me_range=16 / chroma_me=1 / trellis=1 / 8x8dct=1 / cqm=0 / deadzone=21,11 / fast_pskip=1 / chroma_qp_offset=-2 / threads=6 / lookahead_threads=1 / sliced_threads=0 / nr=0 / decimate=1 / interlaced=0 / bluray_compat=0 / constrained_intra=0 / bframes=3 / b_pyramid=2 / b_adapt=1 / b_bias=0 / direct=1 / weightb=1 / open_gop=0 / weightp=2 / keyint=250 / keyint_min=23 / scenecut=40 / intra_refresh=0 / rc_lookahead=40 / rc=abr / mbtree=1 / bitrate=17000 / ratetol=1.0 / qcomp=0.60 / qpmin=0 / qpmax=69 / qpstep=4 / ip_ratio=1.40 / aq=1:1.00
Language : Japanese
Default : Yes
Forced : No

Audio #1
ID : 2
Format : AAC
Format/Info : Advanced Audio Codec
Format profile : LC
Codec ID : A_AAC
Duration : 10 min
Bit rate : 192 kb/s
Channel(s) : 2 channels
Channel positions : Front: L R
Sampling rate : 48.0 kHz
Frame rate : 46.875 FPS (1024 spf)
Compression mode : Lossy
Stream size : 14.4 MiB (1%)
Title : Russian [Lupin and Silv and Itashi]
Language : Russian
Default : Yes
Forced : No

Audio #2
ID : 3
Format : PCM
Codec ID : A_PCM/INT/LIT
Duration : 10 min
Bit rate mode : Constant
Bit rate : 2 304 kb/s
Channel(s) : 2 channels
Sampling rate : 48.0 kHz
Frame rate : 200.000 FPS (240 spf)
Bit depth : 24 bits
Stream size : 172 MiB (12%)
Title : Japanese
Language : Japanese
Default : No
Forced : No
info [Профиль]  [ЛС] 

ZerotakerZX

Стаж: 5 лет 5 месяцев

Сообщений: 718

Рейтинг

post 06-Ноя-2016 09:05 (спустя 5 часов) [-]-6[+]

[Цитировать] 

фанфики уже экранизируют, при том крайне неоригинальные
info [Профиль]  [ЛС] 

Andres23

Стаж: 7 лет 2 месяца

Сообщений: 27

Рейтинг

post 06-Ноя-2016 09:25 (спустя 19 минут) [-]-1[+]

[Цитировать] 

А почему у Наруто правая рука забинтованная?Ему же давно восстановили руку оО и лдо сих пор в бинтах
info [Профиль]  [ЛС] 

TATOSHCA

Пол: Пол:Муж

Стаж: 7 лет 8 месяцев

Сообщений: 3941

Россия
Рейтинг

post 06-Ноя-2016 09:50 (спустя 24 минуты) [-]0[+]

[Цитировать] 

ZerotakerZX
Боруто это не фанфик. По нему даже манга выходит от Мангаки Наруто.

_________________
info [Профиль]  [ЛС] 

ZerotakerZX

Стаж: 5 лет 5 месяцев

Сообщений: 718

Рейтинг

post 06-Ноя-2016 10:12 (спустя 21 минута) [-]-7[+]

[Цитировать] 

TATOSHCA писал(а):

ZerotakerZX
Боруто это не фанфик. По нему даже манга выходит от Мангаки Наруто.
https://ru.wikipedia.org/wiki/%D0%A1%D0%B0%D1%80%D0...0%B0%D0%B7%D0%BC
info [Профиль]  [ЛС] 

True_GothenX

Пол: Пол:Муж

Стаж: 4 года 11 месяцев

Сообщений: 22

Россия
Рейтинг

post 06-Ноя-2016 11:45 (спустя 1 час 32 минуты) [-]3[+]

[Цитировать] 

ZerotakerZX писал(а):

TATOSHCA писал(а):

ZerotakerZX
Боруто это не фанфик. По нему даже манга выходит от Мангаки Наруто.
https://ru.wikipedia.org/wiki/%D0%A1%D0%B0%D1%80%D0...0%B0%D0%B7%D0%BC
Что-то я не заметил в сообщении сарказма.
info [Профиль]  [ЛС] 

ZombieOfHell

Пол: Пол:Муж

Стаж: 6 лет 2 месяца

Сообщений: 70

Россия
Рейтинг

post 06-Ноя-2016 12:17 (спустя 31 минута) [-]-1[+]

[Цитировать] 

Andres23 писал(а):

А почему у Наруто правая рука забинтованная?Ему же давно восстановили руку оО и лдо сих пор в бинтах
Он туда шаринганов напихал, а-ля Данзо, а то вдруг опять с Саске махаться, ещё без одной руки косяк оставаться ))
info [Профиль]  [ЛС] 

NovA_JKE

Пол: Пол:Жен

Стаж: 6 лет 9 месяцев

Сообщений: 413

Антарктида
Рейтинг

post 06-Ноя-2016 13:07 (спустя 50 минут) [-]-1[+]

[Цитировать] 

что-то рип дикий, прям ващеее. me=hex, rc=abr, черные полосы, ориг дорожка в pcm, жуть какая-то.
info [Профиль]  [ЛС] 

ZerotakerZX

Стаж: 5 лет 5 месяцев

Сообщений: 718

Рейтинг

post 06-Ноя-2016 13:26 (спустя 18 минут) [-]-5[+]

[Цитировать] 

True_GothenX писал(а):

ZerotakerZX писал(а):

TATOSHCA писал(а):

ZerotakerZX
Боруто это не фанфик. По нему даже манга выходит от Мангаки Наруто.
https://ru.wikipedia.org/wiki/%D0%A1%D0%B0%D1%80%D0...0%B0%D0%B7%D0%BC
Что-то я не заметил в сообщении сарказма.
ничем не могу помочь
info [Профиль]  [ЛС] 

evegen87

Пол: Пол:Муж

Стаж: 4 года 8 месяцев

Сообщений: 25

Белоруссия
Рейтинг

post 07-Ноя-2016 21:41 (спустя 1 день 8 часов) [-]-1[+]

[Цитировать] 

Продолжительность: 00:10:26
Серьезно? Скоро одноминутные ролики на тапки заливать начнешь?
info [Профиль]  [ЛС] 

xetrin

Пол: Пол:Муж

Стаж: 4 года 7 месяцев

Сообщений: 56

Россия
Рейтинг

post 08-Ноя-2016 21:56 (спустя 1 день) [-]-2[+]

[Цитировать] 

evegen87 писал(а):

Продолжительность: 00:10:26
Серьезно? Скоро одноминутные ролики на тапки заливать начнешь?
Это сарказм? Пройди мимо...
info [Профиль]  [ЛС] 
Показать сообщения:    
Ответить на тему

Текущее время: 06-Дек 18:03

Часовой пояс: GMT + 4



Вы не можете начинать темы
Вы не можете отвечать на сообщения
Вы не можете редактировать свои сообщения
Вы не можете удалять свои сообщения
Вы не можете голосовать в опросах
Вы не можете прикреплять файлы к сообщениям
Вы не можете скачивать файлы