Ошибка

В поисках Дори / Finding Dory (Эндрю Стэнтон, Энгус МакЛэйн) [2016 г., Мультфильм, комедия, приключения, семейный, BDRip-AVC]

Ответить на тему
 
Автор Сообщение

Ant1k91

Пол: Пол:Муж

Стаж: 4 года

Сообщений: 22

Россия
Рейтинг

post 05-Ноя-2016 10:57 0[+]

[Цитировать] 

В поисках Дори / Finding Dory
«Вы ее не видели?»

Год выпуска: 2016
Страна: США
Жанр: Мультфильм, комедия, приключения, семейный
Продолжительность: 1:37:04
Перевод: Профессиональный (полное дублирование) [ iTunes ]
Язык субтитров: Отсутствуют

Режиссер:
  • Эндрю Стэнтон, Энгус МакЛэйн
В ролях:
  • Эллен ДеДженерес
  • Альберт Брукс
  • Эд О’Нил
  • Кэйтлин Олсон
  • Хайден Роуленс
  • Тай Бурелл
  • Дайан Китон
  • Юджин Леви
  • Слоун Мюррэй
  • Идрис Эльба

Описание: Дори — синяя доброжелательная рыбка-хирург, страдающая провалами в памяти. Она упорно стремится избавиться от своего недуга и найти свою семью.

Качество: BDRip-AVC
Формат: MKV
Видео кодек: H.264
Аудио кодек: AC3
Видео: MPEG4 Video (H264), 1152x648, 23.976fps, 2670kbps
Аудио: Dolby AC3, 48000Hz, 6ch, 384kbps
General
Unique ID : 240930937608168533383306474288693786986 (0xB5419C5898E423CEBA8CA8CEC01E396A)
Complete name : I:\RIPS\Мультфильмы\В поисках Дори (2016).mkv
Format : Matroska
Format version : Version 2
File size : 2.07 GiB
Duration : 1 h 37 min
Overall bit rate : 3 056 kb/s
Encoded date : UTC 2016-11-05 06:43:35
Writing application : mkvmerge v8.5.2 ('Crosses') 32bit
Writing library : libebml v1.3.3 + libmatroska v1.4.4

Video
ID : 1
Format : AVC
Format/Info : Advanced Video Codec
Format profile : High@L4.1
Format settings, CABAC : Yes
Format settings, ReFrames : 11 frames
Codec ID : V_MPEG4/ISO/AVC
Duration : 1 h 37 min
Bit rate : 2 670 kb/s
Width : 1 152 pixels
Height : 648 pixels
Display aspect ratio : 16:9
Frame rate mode : Constant
Frame rate : 23.976 (24000/1001) FPS
Color space : YUV
Chroma subsampling : 4:2:0
Bit depth : 8 bits
Scan type : Progressive
Bits/(Pixel*Frame) : 0.149
Stream size : 1.81 GiB (87%)
Writing library : x264 core 148 r2638 7599210
Encoding settings : cabac=1 / ref=11 / deblock=1:-3:-3 / analyse=0x3:0x133 / me=umh / subme=9 / psy=1 / psy_rd=1.00:0.15 / mixed_ref=1 / me_range=32 / chroma_me=1 / trellis=2 / 8x8dct=1 / cqm=0 / deadzone=21,11 / fast_pskip=0 / chroma_qp_offset=-3 / threads=12 / lookahead_threads=3 / sliced_threads=0 / nr=0 / decimate=1 / interlaced=0 / bluray_compat=0 / constrained_intra=0 / bframes=13 / b_pyramid=2 / b_adapt=2 / b_bias=0 / direct=3 / weightb=1 / open_gop=0 / weightp=2 / keyint=240 / keyint_min=23 / scenecut=40 / intra_refresh=0 / rc_lookahead=60 / rc=2pass / mbtree=1 / bitrate=2670 / ratetol=1.0 / qcomp=0.60 / qpmin=0 / qpmax=69 / qpstep=4 / cplxblur=20.0 / qblur=0.5 / vbv_maxrate=62500 / vbv_bufsize=78125 / nal_hrd=none / filler=0 / ip_ratio=1.40 / aq=1:1.00
Default : Yes
Forced : No

Audio
ID : 2
Format : AC-3
Format/Info : Audio Coding 3
Mode extension : CM (complete main)
Format settings, Endianness : Big
Codec ID : A_AC3
Duration : 1 h 37 min
Bit rate mode : Constant
Bit rate : 384 kb/s
Channel(s) : 6 channels
Channel positions : Front: L C R, Side: L R, LFE
Sampling rate : 48.0 kHz
Frame rate : 31.250 FPS (1536 spf)
Compression mode : Lossy
Stream size : 267 MiB (13%)
Title : iTunes Dub
Language : Russian
Default : Yes
Forced : No
info [Профиль]  [ЛС] 
Показать сообщения:    
Ответить на тему

Текущее время: 29-Апр 13:35

Часовой пояс: GMT + 4



Вы не можете начинать темы
Вы не можете отвечать на сообщения
Вы не можете редактировать свои сообщения
Вы не можете удалять свои сообщения
Вы не можете голосовать в опросах
Вы не можете прикреплять файлы к сообщениям
Вы не можете скачивать файлы