Ошибка
Загрузка...

Ледниковый период: Столкновение неизбежно / Ice Age: Collision Course (Майк Тёрмайер, Гален Т. Чу) [2016, мультфильм, фантастика, комедия, приключения, семейный, BDRip 1080p] Dub + Ukr + Eng + Sub rus, ukr, eng от R.G. TNClub

Ответить на тему
 
Автор Сообщение

L

Пол: Пол:Муж

Стаж: 7 лет 4 месяца

Сообщений: 11815

Украина
Рейтинг

post 03-Ноя-2016 09:23 6[+]

[Цитировать] 

Ледниковый период: Столкновение неизбежно
«Маленький шаг для него. Большая проблема для всех»

Страна: США
Жанр: мультфильм, фантастика, комедия, приключения, семейный
Год выпуска: 2016
Продолжительность: 01:34:00
Перевод:
  • Профессиональный (дублированный) [Лицензия EUR] - русский
  • Профессиональный (дублированный) [Лицензия EUR] - украинский
Субтитры: русские, украинские, английские
Оригинальная дорожка: английский
Главы: есть

Режиссер: Майк Тёрмайер, Гален Т. Чу
В ролях: Рэй Романо, Джон Легуизамо, Дэнис Лири, Куин Латифа, Шонн Уильям Скотт, Саймон Пегг, Дженнифер Лопез, Нил Тайсон, Джесси Тайлер Фергюсон, Джесси Джей
Описание: Отчаянная погоня за неуловимым желудем катапультирует Скрата прямо в космос, где он случайно запускает целую серию космических событий. Именно они изменят весь мир Ледникового периода и станут реальной угрозой для него. Чтобы спастись, Сид, Мэнни, Диего и остальные звери должны покинуть свои дома, отправиться в забавное и захватывающее приключение в экзотические новые земли и встретиться со множеством красочных новых персонажей.

Качество видео: BDRip 1080p
Рип от L
Формат видео: MKV
Видео: MPEG-4 AVC Video ~12.7 Mbps [~51%], 1920 x 800 / 23,976 fps / 2.40:1 / High Profile 4.1
Аудио:
  • Russian: 48 kHz, DTS, 3/2 (L,C,R,l,r) + LFE ch, ~768.00 kbps avg
  • Ukrainian: 48 kHz, AC3 Dolby Digital, 3/2 (L,C,R,l,r) + LFE ch, ~448 kbps
  • English: 48 kHz, DTS, 3/2 (L,C,R,l,r) + LFE ch, ~1509.00 kbps avg
Формат субтитров: softsub (SRT)
Раздача от &

Код:

Уникальный идентификатор                 : 218321541419735374624329622300312295723 (0xA43F330CB2A9E91593E7E7DBD0A9592B)
Полное имя                               : D:\Ice.Age.Collision.Course.2016.BluRay.1080p.x264 -TNClub.mkv
Формат                                   : Matroska
Версия формата                           : Version 4 / Version 2
Размер файла                             : 10,2 Гбайт
Продолжительность                        : 1 ч. 34 м.
Общий поток                              : 15,4 Мбит/сек
Название фильма                          : Ice.Age.Collision.Course.2016.BluRay.1080p.x264 -L@TNClub
Дата кодирования                         : UTC 2016-11-03 04:32:47
Программа кодирования                    : mkvmerge v7.7.0 ('Six Voices') 32bit built on Feb 28 2015 23:23:00
Библиотека кодирования                   : libebml v1.3.1 + libmatroska v1.4.2
Обложка                                  : Yes
Attachments                              : cover.png

Видео
Идентификатор                            : 1
Формат                                   : AVC
Формат/Информация                        : Advanced Video Codec
Профиль формата                          : High@L4.1
Параметр CABAC формата                   : Да
Параметр ReFrames формата                : 5 кадров
Идентификатор кодека                     : V_MPEG4/ISO/AVC
Продолжительность                        : 1 ч. 34 м.
Битрейт                                  : 12,7 Мбит/сек
Ширина                                   : 1920 пикселей
Высота                                   : 800 пикселей
Соотношение сторон                       : 2,40:1
Режим частоты кадров                     : Постоянный
Частота кадров                           : 23,976 (23976/1000) кадра/сек
Частота кадров в оригинале               : 23,976 (24000/1001) кадра/сек
Цветовое пространство                    : YUV
Субдискретизация насыщенности            : 4:2:0
Битовая глубина                          : 8 бит
Тип развёртки                            : Прогрессивная
Бит/(Пиксели*Кадры)                      : 0.345
Размер потока                            : 8,39 Гбайт (82%)
Заголовок                                : Ice.Age.Collision.Course.2016.BluRay.1080p.x264 -L@TNClub
Библиотека кодирования                   : x264 core 148 r2638 7599210
Настройки программы                      : cabac=1 / ref=5 / deblock=1:-2:-1 / analyse=0x3:0x133 / me=umh / subme=11 / psy=1 / psy_rd=1.10:0.05 / mixed_ref=1 / me_range=32 / chroma_me=1 / trellis=2 / 8x8dct=1 / cqm=0 / deadzone=21,11 / fast_pskip=0 / chroma_qp_offset=-3 / threads=6 / lookahead_threads=1 / sliced_threads=0 / nr=0 / decimate=1 / interlaced=0 / bluray_compat=0 / constrained_intra=0 / bframes=8 / b_pyramid=2 / b_adapt=2 / b_bias=0 / direct=3 / weightb=1 / open_gop=0 / weightp=2 / keyint=230 / keyint_min=23 / scenecut=40 / intra_refresh=0 / rc_lookahead=60 / rc=crf / mbtree=0 / crf=15.5 / qcomp=0.60 / qpmin=0 / qpmax=69 / qpstep=4 / vbv_maxrate=62500 / vbv_bufsize=78125 / crf_max=0.0 / nal_hrd=none / filler=0 / ip_ratio=1.40 / pb_ratio=1.30 / aq=1:0.90
Язык                                     : English
Default                                  : Да
Forced                                   : Нет

Аудио #1
Идентификатор                            : 2
Формат                                   : DTS
Формат/Информация                        : Digital Theater Systems
Режим                                    : 16
Параметр Endianness формата              : Big
Идентификатор кодека                     : A_DTS
Продолжительность                        : 1 ч. 34 м.
Вид битрейта                             : Постоянный
Битрейт                                  : 768 Кбит/сек
Каналы                                   : 6 каналов
Расположение каналов                     : Front: L C R, Side: L R, LFE
Частота                                  : 48,0 КГц
Частота кадров                           : 93,750 кадра/сек (512 spf)
Битовая глубина                          : 24 бит
Метод сжатия                             : С потерями
Размер потока                            : 519 Мбайт (5%)
Заголовок                                : DTS 5.1 @ 768 kbps
Язык                                     : Russian
Default                                  : Да
Forced                                   : Нет

Аудио #2
Идентификатор                            : 3
Формат                                   : AC-3
Формат/Информация                        : Audio Coding 3
Расширение режима                        : CM (complete main)
Параметр Endianness формата              : Big
Идентификатор кодека                     : A_AC3
Продолжительность                        : 1 ч. 34 м.
Вид битрейта                             : Постоянный
Битрейт                                  : 448 Кбит/сек
Каналы                                   : 6 каналов
Расположение каналов                     : Front: L C R, Side: L R, LFE
Частота                                  : 48,0 КГц
Частота кадров                           : 31,250 кадров/сек (1536 spf)
Метод сжатия                             : С потерями
Размер потока                            : 303 Мбайт (3%)
Заголовок                                : DD 5.1 @ 448 kbps
Язык                                     : Ukrainian
Default                                  : Нет
Forced                                   : Нет

Аудио #3
Идентификатор                            : 4
Формат                                   : DTS
Формат/Информация                        : Digital Theater Systems
Профиль формата                          : ES Matrix / Core
Режим                                    : 16
Параметр Endianness формата              : Big
Идентификатор кодека                     : A_DTS
Продолжительность                        : 1 ч. 34 м.
Вид битрейта                             : Постоянный
Битрейт                                  : 1509 Кбит/сек
Каналы                                   : 7 каналов / 6 каналов
Расположение каналов                     : Front: L C R, Side: L R, Back: C, LFE / Front: L C R, Side: L R, LFE
Частота                                  : 48,0 КГц
Частота кадров                           : 93,750 кадра/сек (512 spf)
Битовая глубина                          : 24 бит
Метод сжатия                             : С потерями
Задержка видео                           : 11 мс.
Размер потока                            : 1020 Мбайт (10%)
Заголовок                                : DTS 5.1 @ 1536 kbps
Язык                                     : English
Default                                  : Нет
Forced                                   : Нет

Текст #1
Идентификатор                            : 5
Формат                                   : UTF-8
Идентификатор кодека                     : S_TEXT/UTF8
Идентификатор кодека/Информация          : UTF-8 Plain Text
Продолжительность                        : 24 м. 51 с.
Битрейт                                  : 0 бит/сек
Count of elements                        : 2
Размер потока                            : 109 байт (0%)
Заголовок                                : Forced
Язык                                     : Russian
Default                                  : Да
Forced                                   : Нет

Текст #2
Идентификатор                            : 6
Формат                                   : UTF-8
Идентификатор кодека                     : S_TEXT/UTF8
Идентификатор кодека/Информация          : UTF-8 Plain Text
Продолжительность                        : 1 ч. 23 м.
Битрейт                                  : 99 бит/сек
Count of elements                        : 1221
Размер потока                            : 61,1 Кбайт (0%)
Язык                                     : Russian
Default                                  : Нет
Forced                                   : Нет

Текст #3
Идентификатор                            : 7
Формат                                   : UTF-8
Идентификатор кодека                     : S_TEXT/UTF8
Идентификатор кодека/Информация          : UTF-8 Plain Text
Продолжительность                        : 1 ч. 21 м.
Битрейт                                  : 0 бит/сек
Count of elements                        : 3
Размер потока                            : 145 байт (0%)
Заголовок                                : Forced
Язык                                     : Ukrainian
Default                                  : Нет
Forced                                   : Нет

Текст #4
Идентификатор                            : 8
Формат                                   : UTF-8
Идентификатор кодека                     : S_TEXT/UTF8
Идентификатор кодека/Информация          : UTF-8 Plain Text
Продолжительность                        : 1 ч. 33 м.
Битрейт                                  : 89 бит/сек
Count of elements                        : 1225
Размер потока                            : 61,3 Кбайт (0%)
Язык                                     : Ukrainian
Default                                  : Нет
Forced                                   : Нет

Текст #5
Идентификатор                            : 9
Формат                                   : UTF-8
Идентификатор кодека                     : S_TEXT/UTF8
Идентификатор кодека/Информация          : UTF-8 Plain Text
Продолжительность                        : 1 ч. 23 м.
Битрейт                                  : 60 бит/сек
Count of elements                        : 1221
Размер потока                            : 36,9 Кбайт (0%)
Язык                                     : English
Default                                  : Нет
Forced                                   : Нет

Меню
00:00:00.000                             : en:00:00:00.000
00:03:09.106                             : en:00:03:09.106
00:05:24.366                             : en:00:05:24.366
00:09:06.087                             : en:00:09:06.087
00:13:22.301                             : en:00:13:22.301
00:18:05.751                             : en:00:18:05.751
00:20:50.583                             : en:00:20:50.583
00:23:10.306                             : en:00:23:10.306
00:27:29.898                             : en:00:27:29.898
00:30:15.981                             : en:00:30:15.981
00:32:54.347                             : en:00:32:54.347
00:36:13.588                             : en:00:36:13.588
00:39:33.454                             : en:00:39:33.454
00:42:58.701                             : en:00:42:58.701
00:47:35.019                             : en:00:47:35.019
00:51:11.735                             : en:00:51:11.735
00:55:50.764                             : en:00:55:50.764
01:01:09.457                             : en:01:01:09.457
01:05:06.402                             : en:01:05:06.402
01:09:39.300                             : en:01:09:39.300
01:14:36.889                             : en:01:14:36.889
01:17:41.532                             : en:01:17:41.532
01:21:43.065                             : en:01:21:43.065
01:24:46.498                             : en:01:24:46.498

Код:

x264 [info]: frame I:1253  Avg QP:13.29  size:311354
x264 [info]: frame P:39332 Avg QP:14.61  size:114220
x264 [info]: frame B:95425 Avg QP:17.22  size: 43303
x264 [info]: consecutive B-frames:  3.1%  4.0% 41.0% 25.4% 12.4% 12.1%  1.1%  0.4%  0.5%

Video Bitrate Obtained (approximate): 12714 kbit/s
Пожалуйста, оставайтесь на раздаче как можно дольше!
Релиз специально для Tapochek.net
Все раздачи R.G.TNClub




Оформление by:GhostRidik
info [Профиль]  [ЛС] 

post 03-Ноя-2016 09:28 (спустя 5 минут) [-]0[+]

Топик был перенесен из форума Оформление раздач (R.G. TNClub) в форум Новинки 2015-2016 (Web-DL, DVD, HD DVD, Blu-ray, HD Rips)

L
 

_BURNS_

Пол: Пол:Муж

Стаж: 2 года 9 месяцев

Сообщений: 23

Ямайка
Рейтинг

post 06-Ноя-2016 18:41 (спустя 3 дня) [-]0[+]

[Цитировать] 

не работают дорожки кроме украинской

_________________
Я не флудер, просто мне есть, что сказать!
info [Профиль]  [ЛС] 

L

Пол: Пол:Муж

Стаж: 7 лет 4 месяца

Сообщений: 11815

Украина
Рейтинг

post 06-Ноя-2016 22:43 (спустя 4 часа) [-]0[+]

[Цитировать] 

_BURNS_
скорее всего у вас проблемы с проигрыванием DTS. Обновите кодеки.
info [Профиль]  [ЛС] 

post 03-Фев-2017 10:19 (спустя 2 месяца 26 дней) [-]0[+]

Топик был перенесен из форума Новинки 2016-2017 (Web-DL, DVD, HD DVD, Blu-ray, HD Rips) в форум Зарубежное кино от R.G. TNСlub

L
 

post 03-Фев-2017 10:21 (спустя 2 месяца 26 дней) [-]0[+]

Топик был перенесен из форума Зарубежное кино от R.G. TNСlub в форум Мультфильмы от R.G. TNСlub

L
 
Показать сообщения:    
Ответить на тему

Текущее время: 20-Авг 17:44

Часовой пояс: GMT + 4



Вы не можете начинать темы
Вы не можете отвечать на сообщения
Вы не можете редактировать свои сообщения
Вы не можете удалять свои сообщения
Вы не можете голосовать в опросах
Вы не можете прикреплять файлы к сообщениям
Вы не можете скачивать файлы