Ошибка

В поисках Дори / Finding Dory (Эндрю Стэнтон, Энгус МакЛэйн) [2016, Мультфильм, комедия, приключения, семейный, BDRip 1080p] Dub iTunes + Eng + Sub rus, eng от R.G. TNClub

Ответить на тему
 
Автор Сообщение

L

Пол: Пол:Муж

Стаж: 6 лет 11 месяцев

Сообщений: 11366

Украина
Рейтинг

post 26-Окт-2016 20:07 5[+]

[Цитировать] 

В поисках Дори / Finding Dory
«Вы ее не видели?»

Страна: США, Pixar Animation Studios, Walt Disney Pictures
Жанр: Мультфильм, комедия, приключения, семейный
Год выпуска: 2016
Продолжительность: 01:37:03
Перевод:
  • Профессиональный (дублированный) [Лицензия iTunes] - русский
  • Профессиональный (дублированный) [Лицензия iTunes] - украинский
Субтитры: русские, английские
Оригинальная дорожка: английский
Главы: есть

Режиссер: Эндрю Стэнтон, Энгус МакЛэйн
В ролях: Эллен ДеДженерес, Альберт Брукс, Эд О’Нил, Кэйтлин Олсон, Хайден Роуленс, Тай Буррелл, Дайан Китон, Юджин Леви, Слоун Мюррэй, Идрис Эльба
Описание: Дори — синяя доброжелательная рыбка-хирург, страдающая провалами в памяти. Она упорно стремится избавиться от своего недуга и найти свою семью.

Качество видео: BDRip 1080p
Рип от L!
Формат видео: MKV

Видео: MPEG-4 AVC Video ~15.3 Mbps [~65%] 1920 x 1080 / 23,976 fps / 16:9 / High Profile 4.1
Аудио:
  • Russian: 48 kHz, AC3 Dolby Digital, 3/2 (L,C,R,l,r) + LFE ch, ~384 kbps
  • Ukrainian: 48 kHz, AC3 Dolby Digital, 2.0 (L,R), ~ 192 Кбит/с
  • English: 48 kHz, DTS, 3/2 (L,C,R,l,r) + LFE ch, ~1509.00 kbps avg
Формат субтитров: softsub (SRT)

Раздача от &

Код:

                 : 171748411335316460992972638996883591555 (0x81358A73C7AC6E97A5F7B6BB6EF05183)
Complete name               : E:\Encode\FINDING_DORY_REMUX_HDCLUB\Finding.Dory.2016.1080p.BluRay.X264 -TNClub.mkv
Format                      : Matroska
Format version              : Version 4 / Version 2
File size                   : 11.8 GiB
Duration                    : 1 h 37 min
Overall bit rate            : 17.4 Mb/s
Movie name                  : Finding.Dory.2016.1080p.BluRay.X264 -L@TNClub
Encoded date                : UTC 2016-10-27 11:54:47
Writing application         : mkvmerge v7.7.0 ('Six Voices') 32bit built on Feb 28 2015 23:23:00
Writing library             : libebml v1.3.1 + libmatroska v1.4.2
Cover                       : Yes
Attachments                 : cover.png

Video
ID                          : 1
Format                      : AVC
Format/Info                 : Advanced Video Codec
Format profile              : High@L4.1
Format settings, CABAC      : Yes
Format settings, ReFrames   : 4 frames
Codec ID                    : V_MPEG4/ISO/AVC
Duration                    : 1 h 37 min
Bit rate                    : 15.3 Mb/s
Width                       : 1 920 pixels
Height                      : 1 080 pixels
Display aspect ratio        : 16:9
Frame rate mode             : Constant
Frame rate                  : 23.976 (24000/1001) FPS
Color space                 : YUV
Chroma subsampling          : 4:2:0
Bit depth                   : 8 bits
Scan type                   : Progressive
Bits/(Pixel*Frame)          : 0.307
Stream size                 : 10.3 GiB (88%)
Title                       : Finding.Dory.2016.1080p.BluRay.X264 -L@TNClub
Writing library             : x264 core 148 r2638 7599210
Encoding settings           : cabac=1 / ref=4 / deblock=1:-2:-1 / analyse=0x3:0x133 / me=umh / subme=11 / psy=1 / psy_rd=1.10:0.05 / mixed_ref=1 / me_range=32 / chroma_me=1 / trellis=2 / 8x8dct=1 / cqm=0 / deadzone=21,11 / fast_pskip=0 / chroma_qp_offset=-3 / threads=6 / lookahead_threads=1 / sliced_threads=0 / nr=0 / decimate=1 / interlaced=0 / bluray_compat=0 / constrained_intra=0 / bframes=7 / b_pyramid=2 / b_adapt=2 / b_bias=0 / direct=3 / weightb=1 / open_gop=0 / weightp=2 / keyint=230 / keyint_min=23 / scenecut=40 / intra_refresh=0 / rc_lookahead=60 / rc=crf / mbtree=0 / crf=17.8 / qcomp=0.60 / qpmin=0 / qpmax=69 / qpstep=4 / vbv_maxrate=62500 / vbv_bufsize=78125 / crf_max=0.0 / nal_hrd=none / filler=0 / ip_ratio=1.40 / pb_ratio=1.30 / aq=1:0.90
Language                    : English
Default                     : Yes
Forced                      : No

Audio #1
ID                          : 2
Format                      : AC-3
Format/Info                 : Audio Coding 3
Mode extension              : CM (complete main)
Format settings, Endianness : Big
Codec ID                    : A_AC3
Duration                    : 1 h 37 min
Bit rate mode               : Constant
Bit rate                    : 384 kb/s
Channel(s)                  : 6 channels
Channel positions           : Front: L C R, Side: L R, LFE
Sampling rate               : 48.0 kHz
Frame rate                  : 31.250 FPS (1536 spf)
Compression mode            : Lossy
Stream size                 : 267 MiB (2%)
Title                       : DD5.1@384kbps
Language                    : Russian
Default                     : Yes
Forced                      : No

Audio #2
ID                          : 3
Format                      : AC-3
Format/Info                 : Audio Coding 3
Mode extension              : CM (complete main)
Format settings, Endianness : Big
Codec ID                    : A_AC3
Duration                    : 1 h 37 min
Bit rate mode               : Constant
Bit rate                    : 192 kb/s
Channel(s)                  : 2 channels
Channel positions           : Front: L R
Sampling rate               : 48.0 kHz
Frame rate                  : 31.250 FPS (1536 spf)
Compression mode            : Lossy
Stream size                 : 133 MiB (1%)
Title                       : DD2.0@192kbps
Language                    : Ukrainian
Default                     : No
Forced                      : No

Audio #3
ID                          : 4
Format                      : DTS
Format/Info                 : Digital Theater Systems
Mode                        : 16
Format settings, Endianness : Big
Codec ID                    : A_DTS
Duration                    : 1 h 37 min
Bit rate mode               : Constant
Bit rate                    : 1 509 kb/s
Channel(s)                  : 6 channels
Channel positions           : Front: L C R, Side: L R, LFE
Sampling rate               : 48.0 kHz
Frame rate                  : 93.750 FPS (512 spf)
Bit depth                   : 24 bits
Compression mode            : Lossy
Stream size                 : 1.02 GiB (9%)
Title                       : DTS5.1@1509kbps
Language                    : English
Default                     : No
Forced                      : No

Text #1
ID                          : 5
Format                      : UTF-8
Codec ID                    : S_TEXT/UTF8
Codec ID/Info               : UTF-8 Plain Text
Duration                    : 1 h 35 min
Bit rate                    : 127 b/s
Count of elements           : 1459
Stream size                 : 88.6 KiB (0%)
Language                    : Russian
Default                     : No
Forced                      : No

Text #2
ID                          : 6
Format                      : UTF-8
Codec ID                    : S_TEXT/UTF8
Codec ID/Info               : UTF-8 Plain Text
Duration                    : 1 h 35 min
Bit rate                    : 84 b/s
Count of elements           : 1576
Stream size                 : 58.7 KiB (0%)
Language                    : English
Default                     : No
Forced                      : No

Menu
00:00:00.000                : en:00:00:00.000
00:02:35.737                : en:00:02:35.737
00:06:50.242                : en:00:06:50.242
00:10:53.193                : en:00:10:53.193
00:13:33.187                : en:00:13:33.187
00:15:25.131                : en:00:15:25.131
00:17:03.312                : en:00:17:03.312
00:19:35.464                : en:00:19:35.464
00:21:35.292                : en:00:21:35.292
00:24:58.704                : en:00:24:58.704
00:27:08.542                : en:00:27:08.542
00:30:33.205                : en:00:30:33.205
00:35:00.264                : en:00:35:00.264
00:37:52.018                : en:00:37:52.018
00:40:17.998                : en:00:40:17.998
00:41:06.672                : en:00:41:06.672
00:42:30.422                : en:00:42:30.422
00:46:03.427                : en:00:46:03.427
00:48:41.710                : en:00:48:41.710
00:50:27.856                : en:00:50:27.856
00:55:06.677                : en:00:55:06.677
00:57:05.838                : en:00:57:05.838
01:00:41.344                : en:01:00:41.344
01:04:32.952                : en:01:04:32.952
01:10:36.814                : en:01:10:36.814
01:12:28.301                : en:01:12:28.301
01:14:09.860                : en:01:14:09.860
01:18:26.493                : en:01:18:26.493
01:26:49.328                : en:01:26:49.328

Код:

x264 [info]: frame I:862   Avg QP:15.31  size:280765
x264 [info]: frame P:36368 Avg QP:16.43  size:136694
x264 [info]: frame B:102398 Avg QP:18.50  size: 57590
x264 [info]: consecutive B-frames:  5.6%  2.7% 14.5% 17.6% 19.0% 38.5%  1.7%  0.4%

Video Bitrate Obtained (approximate): 15264 kbit/s
Пожалуйста, оставайтесь на раздаче как можно дольше!
Релиз специально для Tapochek.net
Все раздачи R.G.TNClub


info [Профиль]  [ЛС] 

L

Пол: Пол:Муж

Стаж: 6 лет 11 месяцев

Сообщений: 11366

Украина
Рейтинг

post 27-Окт-2016 18:04 (спустя 21 час) [-]0[+]

[Цитировать] 

Обновлено.

_________________
info [Профиль]  [ЛС] 

logodg100

Пол: Пол:Муж

Стаж: 6 лет 5 месяцев

Сообщений: 21

Россия
Рейтинг

post 05-Ноя-2016 19:05 (спустя 9 дней) [-]5[+]

[Цитировать] 

Спасибо.
info [Профиль]  [ЛС] 

jetuk

Пол: Пол:Муж

Стаж: 7 лет

Сообщений: 122

Украина
Рейтинг

post 05-Ноя-2016 23:38 (спустя 4 часа) [-]4[+]

[Цитировать] 

Спасибо, посмотрим!
info [Профиль]  [ЛС] 

post 03-Фев-2017 10:19 (спустя 2 месяца 27 дней) [-]0[+]

Топик был перенесен из форума Новинки 2016-2017 (Web-DL, DVD, HD DVD, Blu-ray, HD Rips) в форум Зарубежное кино от R.G. TNСlub

L
 

post 03-Фев-2017 10:21 (спустя 2 месяца 27 дней) [-]0[+]

Топик был перенесен из форума Зарубежное кино от R.G. TNСlub в форум Мультфильмы от R.G. TNСlub

L
 
Показать сообщения:    
Ответить на тему

Текущее время: 30-Мар 18:44

Часовой пояс: GMT + 4



Вы не можете начинать темы
Вы не можете отвечать на сообщения
Вы не можете редактировать свои сообщения
Вы не можете удалять свои сообщения
Вы не можете голосовать в опросах
Вы не можете прикреплять файлы к сообщениям
Вы не можете скачивать файлы