Ошибка
Загрузка...

Полный расколбас / Sausage Party (Грег Тирнан, Конрад Вернон) [2016 г., мультфильм, фэнтези, комедия, приключения, BDRip 1080p] Dub + Eng + Sub rus, eng от R.G. TNClub

Ответить на тему
 
Автор Сообщение

L

Пол: Пол:Муж

Стаж: 7 лет 6 месяцев

Сообщений: 11815

Украина
Рейтинг

post 26-Окт-2016 12:40 3[+]

[Цитировать] 

Полный расколбас / Sausage Party
«Стоять до конца!»

Страна: США
Жанр: мультфильм, фэнтези, комедия, приключения
Год выпуска: 2016
Продолжительность: 01:28:45
Перевод:
  • Профессиональный (дублированный) [Лицензия iTunes] - русский
Субтитры: русские, английские
Оригинальная дорожка: английский
Главы: есть

Режиссер: Грег Тирнан, Конрад Вернон
В ролях: Сет Роген, Кристен Уиг, Джона Хилл, Билл Хейдер, Майкл Сера, Джеймс Франко, Дэнни МакБрайд, Крэйг Робинсон, Пол Радд, Ник Кролл
Описание: Первая анимационная комедия для взрослых о невероятных приключениях еды из супермаркета. Съедобным друзьям предстоит получить ответ на главный вопрос: есть ли жизнь за стенами супермаркета и что же происходит с продуктами после того, как они попадают к людям домой?

Качество видео: BDRip 1080p
Рип от L!
Формат видео: MKV

Видео: MPEG-4 AVC Video ~14.3 Mbps 1920 x 1036 / 23,976 fps / 1.85:1 / High Profile 4.1
Аудио:
  • Russian: 48 kHz, AC3 Dolby Digital, 3/2 (L,C,R,l,r) + LFE ch, ~384 kbps
  • English: 48 kHz, DTS, 3/2 (L,C,R,l,r) + LFE ch, ~1509.00 kbps avg
Формат субтитров: softsub (SRT)

Раздача от &
TNClub............................................................SOURCE



Код:



Unique ID                   : 224997740049800747931212968805999868333 (0xA944FD0E36C111F78106850D136879AD)
Complete name               : E:\Encode\Sausage.Party.2016.BluRay.1080p.AVC.DTS-HD.MA5.1-loongkee@MTeam\Sausage.Party.2016.BluRay.1080p.DD5.1.x264 -L@TNClub.mkv
Format                      : Matroska
Format version              : Version 4 / Version 2
File size                   : 10.0 GiB
Duration                    : 1 h 28 min
Overall bit rate            : 16.2 Mb/s
Movie name                  : Sausage.Party.2016.BluRay.1080p.DD5.1.x264 -L@TNClub
Encoded date                : UTC 2016-10-26 08:19:25
Writing application         : mkvmerge v7.7.0 ('Six Voices') 32bit built on Feb 28 2015 23:23:00
Writing library             : libebml v1.3.1 + libmatroska v1.4.2
Cover                       : Yes
Attachments                 : cover.png

Video
ID                          : 1
Format                      : AVC
Format/Info                 : Advanced Video Codec
Format profile              : High@L4.1
Format settings, CABAC      : Yes
Format settings, ReFrames   : 4 frames
Codec ID                    : V_MPEG4/ISO/AVC
Duration                    : 1 h 28 min
Bit rate                    : 14.3 Mb/s
Width                       : 1 920 pixels
Height                      : 1 036 pixels
Display aspect ratio        : 1.85:1
Frame rate mode             : Constant
Frame rate                  : 23.976 (24000/1001) FPS
Color space                 : YUV
Chroma subsampling          : 4:2:0
Bit depth                   : 8 bits
Scan type                   : Progressive
Bits/(Pixel*Frame)          : 0.299
Stream size                 : 8.85 GiB (88%)
Title                       : Sausage.Party.2016.BluRay.1080p.DD5.1.x264 -L@TNClub
Writing library             : x264 core 148 r2638 7599210
Encoding settings           : cabac=1 / ref=4 / deblock=1:-2:-1 / analyse=0x3:0x133 / me=umh / subme=11 / psy=1 / psy_rd=1.10:0.05 / mixed_ref=1 / me_range=32 / chroma_me=1 / trellis=2 / 8x8dct=1 / cqm=0 / deadzone=21,11 / fast_pskip=0 / chroma_qp_offset=-3 / threads=6 / lookahead_threads=1 / sliced_threads=0 / nr=0 / decimate=1 / interlaced=0 / bluray_compat=0 / constrained_intra=0 / bframes=7 / b_pyramid=2 / b_adapt=2 / b_bias=0 / direct=3 / weightb=1 / open_gop=0 / weightp=2 / keyint=230 / keyint_min=23 / scenecut=40 / intra_refresh=0 / rc_lookahead=60 / rc=crf / mbtree=0 / crf=16.3 / qcomp=0.60 / qpmin=0 / qpmax=69 / qpstep=4 / vbv_maxrate=62500 / vbv_bufsize=78125 / crf_max=0.0 / nal_hrd=none / filler=0 / ip_ratio=1.40 / pb_ratio=1.30 / aq=1:0.90
Language                    : English
Default                     : Yes
Forced                      : No

Audio #1
ID                          : 2
Format                      : AC-3
Format/Info                 : Audio Coding 3
Mode extension              : CM (complete main)
Format settings, Endianness : Big
Codec ID                    : A_AC3
Duration                    : 1 h 28 min
Bit rate mode               : Constant
Bit rate                    : 384 kb/s
Channel(s)                  : 6 channels
Channel positions           : Front: L C R, Side: L R, LFE
Sampling rate               : 48.0 kHz
Frame rate                  : 31.250 FPS (1536 spf)
Compression mode            : Lossy
Stream size                 : 244 MiB (2%)
Title                       : DD5.1@384kbps
Language                    : Russian
Default                     : Yes
Forced                      : No

Audio #2
ID                          : 3
Format                      : DTS
Format/Info                 : Digital Theater Systems
Mode                        : 16
Format settings, Endianness : Big
Codec ID                    : A_DTS
Duration                    : 1 h 28 min
Bit rate mode               : Constant
Bit rate                    : 1 509 kb/s
Channel(s)                  : 6 channels
Channel positions           : Front: L C R, Side: L R, LFE
Sampling rate               : 48.0 kHz
Frame rate                  : 93.750 FPS (512 spf)
Bit depth                   : 16 bits
Compression mode            : Lossy
Stream size                 : 958 MiB (9%)
Title                       : DTS5.1@1509kbps
Language                    : English
Default                     : No
Forced                      : No

Text #1
ID                          : 4
Format                      : UTF-8
Codec ID                    : S_TEXT/UTF8
Codec ID/Info               : UTF-8 Plain Text
Duration                    : 1 h 22 min
Bit rate                    : 4 b/s
Count of elements           : 57
Stream size                 : 2.79 KiB (0%)
Title                       : Forced
Language                    : Russian
Default                     : Yes
Forced                      : No

Text #2
ID                          : 5
Format                      : UTF-8
Codec ID                    : S_TEXT/UTF8
Codec ID/Info               : UTF-8 Plain Text
Duration                    : 1 h 22 min
Bit rate                    : 131 b/s
Count of elements           : 1416
Stream size                 : 79.7 KiB (0%)
Language                    : Russian
Default                     : No
Forced                      : No

Text #3
ID                          : 6
Format                      : UTF-8
Codec ID                    : S_TEXT/UTF8
Codec ID/Info               : UTF-8 Plain Text
Duration                    : 1 h 27 min
Bit rate                    : 91 b/s
Count of elements           : 1707
Stream size                 : 58.2 KiB (0%)
Language                    : English
Default                     : No
Forced                      : No

Menu
00:00:00.000                : en:00:00:00.000
00:04:24.264                : en:00:04:24.264
00:10:19.118                : en:00:10:19.118
00:15:27.844                : en:00:15:27.844
00:19:32.171                : en:00:19:32.171
00:24:53.701                : en:00:24:53.701
00:29:32.938                : en:00:29:32.938
00:35:44.142                : en:00:35:44.142
00:41:55.263                : en:00:41:55.263
00:48:18.521                : en:00:48:18.521
00:54:45.908                : en:00:54:45.908
00:59:54.508                : en:00:59:54.508
01:03:47.073                : en:01:03:47.073
01:08:01.286                : en:01:08:01.286
01:11:55.811                : en:01:11:55.811
01:16:03.809                : en:01:16:03.809


Код:

x264 [info]: frame I:1104  Avg QP:12.66  size:229339
x264 [info]: frame P:33015 Avg QP:13.74  size:126828
x264 [info]: frame B:93561 Avg QP:16.06  size: 54108
x264 [info]: consecutive B-frames:  4.1%  4.3%  7.7% 45.4% 12.0% 18.2%  4.5%  3.8%

Video Bitrate Obtained (approximate): 14277 kbit/s
Пожалуйста, оставайтесь на раздаче как можно дольше!
Релиз специально для Tapochek.net
Все раздачи R.G.TNClub


info [Профиль]  [ЛС] 

DrHyde085

Пол: Пол:Муж

Стаж: 7 лет 9 месяцев

Сообщений: 50

Рейтинг

post 26-Окт-2016 12:50 (спустя 10 минут) [-]0[+]

[Цитировать] 

Раздача то будет?
info [Профиль]  [ЛС] 

Tohabandit90

Пол: Пол:Муж

Стаж: 5 лет 3 месяца

Сообщений: 284

Россия
Рейтинг

post 26-Окт-2016 13:22 (спустя 31 минута) [-]4[+]

[Цитировать] 

Не вкурсе не кто,гобилн планирует озвучивать ?

_________________
Не зная ни сна и ни отдыха, при лунном и солнечном свете, мы делаем деньги из воздуха, что б снова пустить их на ветер...
info [Профиль]  [ЛС] 

obama1

Стаж: 8 лет

Сообщений: 604

Албания
Рейтинг

post 26-Окт-2016 15:04 (спустя 1 час 41 минута) [-]0[+]

[Цитировать] 

шикарный мульт , лаваш порадовал
info [Профиль]  [ЛС] 

Monoxide

Пол: Пол:Муж

Стаж: 7 лет 1 месяц

Сообщений: 85

США
Рейтинг

post 26-Окт-2016 17:27 (спустя 2 часа 23 минуты) [-]1[+]

[Цитировать] 

Tohabandit90, не планирует. А дубляж от кубиков кстати.

_________________
info [Профиль]  [ЛС] 

Mistrallis

Пол: Пол:Муж

Стаж: 8 лет 1 месяц

Сообщений: 165

Норфолк
Рейтинг

post 26-Окт-2016 17:40 (спустя 13 минут) [-]0[+]

[Цитировать] 

Monoxide да ладно, он ведь даже трейлер озвучивал, передумал?
info [Профиль]  [ЛС] 

VeLoKom

Пол: Пол:Муж

Стаж: 6 лет 3 месяца

Сообщений: 102

Россия
Рейтинг

post 26-Окт-2016 19:18 (спустя 1 час 37 минут) [-]1[+]

[Цитировать] 

Хороший семейный мультфильм!
info [Профиль]  [ЛС] 

Nikohorse

Стаж: 4 года 1 месяц

Сообщений: 163

Мексика
Рейтинг

post 26-Окт-2016 21:52 (спустя 2 часа 34 минуты) [-]0[+]

[Цитировать] 

Monoxide писал(а):

Tohabandit90, не планирует. А дубляж от кубиков кстати.
От кубиков? Значит без цензуры???

_________________
info [Профиль]  [ЛС] 

mormegil

Пол: Пол:Муж

Стаж: 8 лет 6 месяцев

Сообщений: 528

Россия
Рейтинг

post 26-Окт-2016 23:53 (спустя 2 часа) [-]0[+]

[Цитировать] 

Nikohorse писал(а):

Monoxide писал(а):

Tohabandit90, не планирует. А дубляж от кубиков кстати.
От кубиков? Значит без цензуры???
присоединяюсь к вопросу!

_________________
i7-2600 CPU @ 3.40GHz ОЗУ 8Gb GTX590 3Gb GDDR5
info [Профиль]  [ЛС] 

firefoxLV

Пол: Пол:Муж

Стаж: 7 лет 5 месяцев

Сообщений: 220

Россия
Рейтинг

post 27-Окт-2016 01:37 (спустя 1 час 43 минуты) [-]0[+]

[Цитировать] 

mormegil писал(а):

Nikohorse писал(а):

Monoxide писал(а):

Tohabandit90, не планирует. А дубляж от кубиков кстати.
От кубиков? Значит без цензуры???
присоединяюсь к вопросу!
И я)

_________________
info [Профиль]  [ЛС] 

rambaramba

Пол: Пол:Муж

Стаж: 2 года 8 месяцев

Сообщений: 516

Предупреждений: 1

Антарктида
Рейтинг

post 27-Окт-2016 02:55 (спустя 1 час 17 минут) [-]2[+]

[Цитировать] 

Аморальный и пропитаный дешевизной мультик.

Это всего лишь мое мнение. Больше фильмы с участием этого сценариста смотреть я не буду.

_________________
Нет рейтинга, нет проблем.
info [Профиль]  [ЛС] 

AL13NTX

Пол: Пол:Муж

Стаж: 7 лет 6 месяцев

Сообщений: 114

Россия
Рейтинг

post 27-Окт-2016 10:33 (спустя 7 часов) [-]2[+]

[Цитировать] 

Пошлый треш

_________________
info [Профиль]  [ЛС] 

Liorrik

Стаж: 4 года 11 месяцев

Сообщений: 95

Рейтинг

post 27-Окт-2016 15:47 (спустя 5 часов) [-]22[+]

[Цитировать] 

Просто смешно видеть комментарии по типу "Аморальный и пошлый трэш" Улыбаюсь Этот мультфильм и задумывался как аморальный и пошлый трэш, вы еще зайдите на порнохаб и пожалуйтесь в комментах что там людей е*ут Улыбаюсь
info [Профиль]  [ЛС] 

Mystery

Пол: Пол:Муж

Стаж: 7 лет 7 месяцев

Сообщений: 71

Россия
Рейтинг

post 27-Окт-2016 20:08 (спустя 4 часа) [-]3[+]

[Цитировать] 

Tohabandit90 писал(а):

Не вкурсе не кто,гобилн планирует озвучивать ?
звонили из школы, просили вернуть тебя на уроки
info [Профиль]  [ЛС] 

Бублик007

Пол: Пол:Муж

Стаж: 2 года 9 месяцев

Сообщений: 33

Россия
Рейтинг

post 27-Окт-2016 20:11 (спустя 2 минуты) [-]0[+]

[Цитировать] 

Tohabandit90 писал(а):

Не вкурсе не кто,гобилн планирует озвучивать ?
А он и озвучивал на спецпоказах.
info [Профиль]  [ЛС] 

karaz

Пол: Пол:Муж

Стаж: 4 года 7 месяцев

Сообщений: 5

Рейтинг

post 29-Окт-2016 17:08 (спустя 1 день 20 часов) [-]-2[+]

[Цитировать] 

где взять перевод от сыендука без цензуры?)
info [Профиль]  [ЛС] 

TorAdin

Стаж: 8 лет 1 месяц

Сообщений: 649

Рейтинг

post 29-Окт-2016 17:45 (спустя 36 минут) [-]0[+]

[Цитировать] 

Ну как бы, кто то ждал мультика для детей чтоль? изначально было ясно для кого он. Другое дело ,что качество реально так себе ,да и шутки унылые.
info [Профиль]  [ЛС] 

Remak

Стаж: 8 лет 6 месяцев

Сообщений: 447

Рейтинг

post 05-Ноя-2016 12:45 (спустя 6 дней) [-]0[+]

[Цитировать] 

rambaramba писал(а):

Аморальный и пропитаный дешевизной мультик.

Это всего лишь мое мнение. Больше фильмы с участием этого сценариста смотреть я не буду.
Да и до этого видать ни одного не смотрел. Иначе знал бы кто такой Сет Роген и не ожидал бы от него семейного мультка, который можно смотреть с детишками и престарелой бабушкой. :-)
info [Профиль]  [ЛС] 

exmemail

Стаж: 7 лет

Сообщений: 46

Россия
Рейтинг

post 06-Ноя-2016 23:49 (спустя 1 день 11 часов) [-]-5[+]

[Цитировать] 

ОТСТОЙ!
info [Профиль]  [ЛС] 

KakHaxTak

Пол: Пол:Муж

Стаж: 1 год 1 месяц

Сообщений: 6

Россия
Рейтинг

post 11-Ноя-2016 22:17 (спустя 4 дня) [-]0[+]

[Цитировать] 

Спасибо.Шикарный Мулт ))

_________________
info [Профиль]  [ЛС] 

post 03-Фев-2017 10:20 (спустя 2 месяца 21 день) [-]0[+]

Топик был перенесен из форума Новинки 2016-2017 (Web-DL, DVD, HD DVD, Blu-ray, HD Rips) в форум Зарубежное кино от R.G. TNСlub

L
 

post 03-Фев-2017 10:21 (спустя 2 месяца 21 день) [-]0[+]

Топик был перенесен из форума Зарубежное кино от R.G. TNСlub в форум Мультфильмы от R.G. TNСlub

L
 
Показать сообщения:    
Ответить на тему

Текущее время: 18-Окт 11:41

Часовой пояс: GMT + 4



Вы не можете начинать темы
Вы не можете отвечать на сообщения
Вы не можете редактировать свои сообщения
Вы не можете удалять свои сообщения
Вы не можете голосовать в опросах
Вы не можете прикреплять файлы к сообщениям
Вы не можете скачивать файлы