Ошибка

До окончания фрилича осталось:


Исполнительный комитет признаний в любви / Zutto Mae kara Suki Deshita. Kokuhaku Jikkou Iinkai [Movie] [2016] [повседневность, романтика, школа] [WEBRip] [720p] [Любительский (JAP+SUB)]

Ответить на тему
 
Автор Сообщение

TotSamiySoer

Пол: Пол:Муж

Стаж: 2 года

Сообщений: 196

Россия
Рейтинг

post 25-Окт-2016 23:39 0[+]

[Цитировать] 

Исполнительный комитет признаний в любви / Zutto Mae kara Suki Deshita. Kokuhaku Jikkou Iinkai

Год выпуска: 2016
Страна: Япония
Жанр: повседневность, романтика, школа
Тип: Фильм
Продолжительность: 1 эп. ~ 64 мин.
Студия: Qualia Animation
Режиссер: Янагисава Тэцуя
Озвучание: двухголосое (муж./жен.): Soer, MezIdA [DeadLine Studio]
Субтитры: АleX_MytH, Endil, Surokune
Описание:
Фильм - адаптация песенного вокалоид-проекта Kokuhaku Jikko Iinkai ~Renai Series~. Нацки Эномото вдруг признается в любви Ю Сэтогути. Но смутившись, забирает свои слова назад и говорит, что это была лишь репетиция перед настоящим признанием.
Первая часть проекта Kokuhaku Jikkou Iinkai: Renai Series, вдохновленного Vocaloid-песнями.
Информация о видео:

Качество:WEBRip | Формат: .mkv | Рип: HorribleSubs
Видео: x264 (8 bit), 1280x720, 1770 kbps, 23,976 fps
Звук (Rus(int)): AAC, 174 kbps, 48 KHz, 2ch | [2VO]
Звук (Japanese): AAC, 128 kbps, 44.1 KHz, 2ch | [Original]
Субтитры (Russian): ASS, встроенные | только надписи (включены по умолчанию)
Субтитры (Russian): ASS, встроенные | полный перевод
Хардсаб: отсутствует

General
Unique ID : 200691063387703449917797421294903471792 (0x96FBB15EF0CF0B8DA89365C701E1AEB0)
Complete name : D:\[DLS] Zutto Mae kara Suki Deshita [Soer & MezIdA]\[DeadLine] Zutto Mae kara Suki Deshita [Soer & MezIdA] [720p WEBRip].mkv
Format : Matroska
Format version : Version 4 / Version 2
File size : 945 MiB
Duration : 1h 3mn
Overall bit rate : 2 072 Kbps
Encoded date : UTC 2016-10-25 18:52:36
Writing application : mkvmerge v7.6.0 ('Garden of Dreams') 64bit built on Feb 8 2015 13:04:34
Writing library : libebml v1.3.1 + libmatroska v1.4.2
Attachments : OpenSans-Semibold.ttf

Video
ID : 1
Format : AVC
Format/Info : Advanced Video Codec
Format profile : High@L4
Format settings, CABAC : Yes
Format settings, ReFrames : 6 frames
Codec ID : V_MPEG4/ISO/AVC
Duration : 1h 3mn
Bit rate : 1 776 Kbps
Width : 1 280 pixels
Height : 720 pixels
Display aspect ratio : 16:9
Frame rate mode : Variable
Frame rate : 23.976 fps
Color space : YUV
Chroma subsampling : 4:2:0
Bit depth : 8 bits
Scan type : Progressive
Bits/(Pixel*Frame) : 0.080
Stream size : 806 MiB (85%)
Writing library : x264 core 120 r2120 0c7dab9
Encoding settings : cabac=1 / ref=6 / deblock=1:1:1 / analyse=0x3:0x113 / me=umh / subme=8 / psy=1 / psy_rd=0.40:0.00 / mixed_ref=1 / me_range=16 / chroma_me=1 / trellis=1 / 8x8dct=1 / cqm=0 / deadzone=21,11 / fast_pskip=1 / chroma_qp_offset=-2 / threads=4 / sliced_threads=0 / nr=0 / decimate=1 / interlaced=0 / bluray_compat=0 / constrained_intra=0 / bframes=3 / b_pyramid=2 / b_adapt=2 / b_bias=0 / direct=3 / weightb=1 / open_gop=0 / weightp=2 / keyint=250 / keyint_min=23 / scenecut=40 / intra_refresh=0 / rc_lookahead=50 / rc=2pass / mbtree=1 / bitrate=1776 / ratetol=1.0 / qcomp=0.60 / qpmin=0 / qpmax=69 / qpstep=4 / cplxblur=20.0 / qblur=0.5 / vbv_maxrate=3552 / vbv_bufsize=8880 / nal_hrd=none / ip_ratio=1.40 / aq=1:0.60
Default : Yes
Forced : No

Audio #1
ID : 2
Format : AAC
Format/Info : Advanced Audio Codec
Format profile : LC
Codec ID : A_AAC
Duration : 1h 3mn
Bit rate : 172 Kbps
Channel(s) : 2 channels
Channel positions : Front: L R
Sampling rate : 48.0 KHz
Frame rate : 46.875 fps (1024 spf)
Compression mode : Lossy
Delay relative to video : 20ms
Stream size : 78.6 MiB (8%)
Title : [Soer & MezIdA] [Deadline Studio]
Language : Russian
Default : Yes
Forced : Yes

Audio #2
ID : 3
Format : AAC
Format/Info : Advanced Audio Codec
Format profile : LC
Codec ID : A_AAC
Duration : 1h 3mn
Bit rate : 128 Kbps
Channel(s) : 2 channels
Channel positions : Front: L R
Sampling rate : 44.1 KHz
Frame rate : 43.066 fps (1024 spf)
Compression mode : Lossy
Stream size : 58.4 MiB (6%)
Title : Original
Language : Japanese
Default : No
Forced : No

Text #1
ID : 4
Format : ASS
Codec ID : S_TEXT/ASS
Codec ID/Info : Advanced Sub Station Alpha
Duration : 1h 0mn
Bit rate : 280 bps
Count of elements : 587
Compression mode : Lossless
Stream size : 125 KiB (0%)
Title : Надписи
Language : Russian
Default : Yes
Forced : Yes

Text #2
ID : 5
Format : ASS
Codec ID : S_TEXT/ASS
Codec ID/Info : Advanced Sub Station Alpha
Duration : 1h 3mn
Bit rate : 371 bps
Count of elements : 1234
Compression mode : Lossless
Stream size : 172 KiB (0%)
Title : Полные субтитры
Language : Russian
Default : No
Forced : No

http://tapochek.net/viewtopic.php?t=194080 - альтернативная озвучка
info [Профиль]  [ЛС] 

TotSamiySoer

Пол: Пол:Муж

Стаж: 2 года

Сообщений: 196

Россия
Рейтинг

post 25-Окт-2016 23:41 (спустя 1 минута) [-]0[+]

[Цитировать] 

Добавлен: фильм
info [Профиль]  [ЛС] 
Показать сообщения:    
Ответить на тему

Текущее время: 10-Дек 12:50

Часовой пояс: GMT + 4



Вы не можете начинать темы
Вы не можете отвечать на сообщения
Вы не можете редактировать свои сообщения
Вы не можете удалять свои сообщения
Вы не можете голосовать в опросах
Вы не можете прикреплять файлы к сообщениям
Вы не можете скачивать файлы