Ошибка

В поисках Дори / Finding Dory (Эндрю Стэнтон, Энгус МакЛэйн) [2016 г., Мультфильм, комедия, приключения, семейный, WEB-DLRip] Лицензия

Ответить на тему
 
Автор Сообщение

Kapolone

Пол: Пол:Муж

Стаж: 4 года 5 месяцев

Сообщений: 363

Канада
Рейтинг

post 25-Окт-2016 00:33 1[+]

[Цитировать] 

В поисках Дори / Finding Dory
«Вы ее не видели?»

pic="http://i83.fastpic.ru/big/2016/1025/42/177fa76db867879a034cf8ac71ce4242.jpg"
Год выпуска: 2016
Страна: США
Жанр: Мультфильм, комедия, приключения, семейный
Продолжительность: 01:37:02
Перевод: Профессиональный (полное дублирование) [Цифровая лицензия iTunes]
Режиссер: Эндрю Стэнтон, Энгус МакЛэйн
В ролях: Эллен ДеДженерес, Альберт Брукс, Эд О’Нил, Кэйтлин Олсон, Хайден Роуленс, Тай Бурелл, Дайан Китон, Юджин Леви, Слоун Мюррэй, Идрис Эльба
Описание:
Дори — синяя доброжелательная рыбка-хирург, страдающая провалами в памяти. Она упорно стремится избавиться от своего недуга и найти свою семью.

Качество: WEB-DLRip
Формат: AVI
Видео кодек: XviD
Аудио кодек: AC3
Видео: 720x400, 1623 Kbps, 23.976 fps
Аудио: 48 kHz, AC3, 5.1ch, ~384 kbps

Код:

General
Complete name                            : /data/client_1507/outp/Finding,Dory.2O16.D.WEB-DLRip.14OOMB.avi
Format                                   : AVI
Format/Info                              : Audio Video Interleave
File size                                : 1.37 GiB
Duration                                 : 1h 37mn
Overall bit rate                         : 2 016 Kbps
Writing application                      : VirtualDubMod 1.5.10.2 (build 2540/release)
Writing library                          : VirtualDubMod build 2540/release

Video
ID                                       : 0
Format                                   : MPEG-4 Visual
Format profile                           : Advanced Simple@L5
Format settings, BVOP                    : 2
Format settings, QPel                    : No
Format settings, GMC                     : No warppoints
Format settings, Matrix                  : Default (MPEG)
Codec ID                                 : XVID
Codec ID/Hint                            : XviD
Duration                                 : 1h 37mn
Bit rate                                 : 1 623 Kbps
Width                                    : 720 pixels
Height                                   : 400 pixels
Display aspect ratio                     : 16:9
Frame rate                               : 23.976 fps
Color space                              : YUV
Chroma subsampling                       : 4:2:0
Bit depth                                : 8 bits
Scan type                                : Progressive
Compression mode                         : Lossy
Bits/(Pixel*Frame)                       : 0.235
Stream size                              : 1.10 GiB (80%)
Writing library                          : XviD 1.2.1 (UTC 2008-12-04)

Audio
ID                                       : 1
Format                                   : AC-3
Format/Info                              : Audio Coding 3
Mode extension                           : CM (complete main)
Format settings, Endianness              : Big
Codec ID                                 : 2000
Duration                                 : 1h 37mn
Bit rate mode                            : Constant
Bit rate                                 : 384 Kbps
Channel(s)                               : 6 channels
Channel positions                        : Front: L C R, Side: L R, LFE
Sampling rate                            : 48.0 KHz
Bit depth                                : 16 bits
Compression mode                         : Lossy
Stream size                              : 267 MiB (19%)
Alignment                                : Split accross interleaves
Interleave, duration                     : 42 ms (1.00 video frame)
Interleave, preload duration             : 500 ms
info [Профиль]  [ЛС] 

Iras

Стаж: 7 лет 10 месяцев

Сообщений: 4078

Россия
Рейтинг

post 25-Окт-2016 13:12 (спустя 12 часов) [-]0[+]

[Цитировать] 

По сравнению с первой частью - куда как унылее.
Плюс, красной нитью протаскиваемое с грацией пьяного бегемота на льду послание - "инвалиды тоже люди" несколько раздражает.
info [Профиль]  [ЛС] 
Показать сообщения:    
Ответить на тему

Текущее время: 24-Июл 20:53

Часовой пояс: GMT + 4



Вы не можете начинать темы
Вы не можете отвечать на сообщения
Вы не можете редактировать свои сообщения
Вы не можете удалять свои сообщения
Вы не можете голосовать в опросах
Вы не можете прикреплять файлы к сообщениям
Вы не можете скачивать файлы