Ошибка

Полный расколбас / Sausage Party (Грег Тирнан, Конрад Вернон) [2016 г., мультфильм, фэнтези, комедия, приключения, HDRip] Лицензия

Ответить на тему
 
Автор Сообщение

Kapolone

Пол: Пол:Муж

Стаж: 4 года 11 месяцев

Сообщений: 397

Канада
Рейтинг

post 25-Окт-2016 00:24 7[+]

[Цитировать] 

Полный расколбас / Sausage Party
«Стоять до конца!»


pic="http://i82.fastpic.ru/big/2016/1025/f2/6832b604e4bfc4b09a1dd9fa72c5eef2.png"
Год выпуска: 2016
Страна: США
Жанр: мультфильм, фэнтези, комедия, приключения
Продолжительность: 01:28:30
Перевод: Профессиональный (дублированный)[Цифровая лицензия iTunes]

Режиссёр: Грег Тирнан, Конрад Вернон

В ролях: Сет Роген, Кристен Уиг, Джона Хилл, Билл Хейдер, Майкл Сера, Джеймс Франко, Дэнни МакБрайд, Крэйг Робинсон, Пол Радд, Ник Кролл

Описание: Первая анимационная комедия для взрослых о невероятных приключениях еды из супермаркета. Съедобным друзьям предстоит получить ответ на главный вопрос: есть ли жизнь за стенами супермаркета и что же происходит с продуктами после того, как они попадают к людям домой?

Бюджет: $19 000 000
Сборы в США: $97 596 322
Сборы в мире: + $35 641 891 = $133 238 213
Сборы в России: $2 672 851
Рейтинг MPAA: 18+ зрителям, достигшим 18 лет



Качество: HDRip
Формат: AVI
Видео кодек: XviD
Аудио кодек: AC3
Видео: 720x384, 23.976 fps, ~1812 Kbps
Аудио: AC3, 384 Kbps, 48.0 KHz, 6 ch
General
Complete name : /data/client_1507/outp/Raskolbas.2016.HDRip.1400MB.avi
Format : AVI
Format/Info : Audio Video Interleave
File size : 1.37 GiB
Duration : 1h 28mn
Overall bit rate : 2 205 Kbps
Movie name : p0LHYj.PaCk0LbaC.2o16.D.HDRip.14oOMB
Writing application : VirtualDubMod 1.5.10.2 (build 2540/release)
Original source form/Name : Movie

Video
ID : 0
Format : MPEG-4 Visual
Format profile : Advanced Simple@L5
Format settings, BVOP : 2
Format settings, QPel : No
Format settings, GMC : No warppoints
Format settings, Matrix : Custom
Codec ID : XVID
Codec ID/Hint : XviD
Duration : 1h 28mn
Bit rate : 1 812 Kbps
Width : 720 pixels
Height : 384 pixels
Display aspect ratio : 1.85:1
Frame rate : 23.976 fps
Color space : YUV
Chroma subsampling : 4:2:0
Bit depth : 8 bits
Scan type : Progressive
Compression mode : Lossy
Bits/(Pixel*Frame) : 0.273
Stream size : 1.12 GiB (82%)
Writing library : XviD 1.2.1 (UTC 2008-12-04)

Audio
ID : 1
Format : AC-3
Format/Info : Audio Coding 3
Mode extension : CM (complete main)
Format settings, Endianness : Big
Codec ID : 2000
Duration : 1h 28mn
Bit rate mode : Constant
Bit rate : 384 Kbps
Channel(s) : 6 channels
Channel positions : Front: L C R, Side: L R, LFE
Sampling rate : 48.0 KHz
Bit depth : 16 bits
Compression mode : Lossy
Delay relative to video : 959ms
Stream size : 244 MiB (17%)
Alignment : Split accross interleaves
Interleave, duration : 42 ms (1.00 video frame)
Interleave, preload duration : 500 ms
info [Профиль]  [ЛС] 

bratboga

Пол: Пол:Муж

Стаж: 2 года

Сообщений: 58

Белоруссия
Рейтинг

post 25-Окт-2016 03:20 (спустя 2 часа 55 минут) [-]-14[+]

[Цитировать] 

Полный ППЦ!на Любителя...
а по постеру... Выживший в ядерной войне

_________________
Почётный пользователь нелегального софта
info [Профиль]  [ЛС] 

gohagoha11

Пол: Пол:Муж

Стаж: 5 лет 3 месяца

Сообщений: 23

Россия
Рейтинг

post 25-Окт-2016 03:33 (спустя 13 минут) [-]-11[+]

[Цитировать] 

шлак полный... Нельзя такие "шедевры" здравомыслящим людям показывать
info [Профиль]  [ЛС] 

melgib

Пол: Пол:Муж

Стаж: 6 лет 2 месяца

Сообщений: 73

Молдавия
Рейтинг

post 25-Окт-2016 12:55 (спустя 9 часов) [-]0[+]

[Цитировать] 

Рейтинги голимые, люди не довольны. А бюджет отбили ого-го! Смеюсь
info [Профиль]  [ЛС] 

Zvinko_D

Пол: Пол:Муж

Стаж: 5 лет

Сообщений: 28

СССР
Рейтинг

post 26-Окт-2016 00:57 (спустя 12 часов) [-]4[+]

[Цитировать] 

ЛСД-трип.
info [Профиль]  [ЛС] 

topsex

Пол: Пол:Муж

Стаж: 7 лет 9 месяцев

Сообщений: 526

СССР
Рейтинг

post 26-Окт-2016 01:11 (спустя 13 минут) [-]-7[+]

[Цитировать] 

Ходил на сие в кино, готовился к полному расколбасу, везде пестрило 18+ только для взрослых, в итоге мульт сильно не дотянул до полного расколбаса 18+, может я совсем испорчен, но в 12 лет я видел уже мультфильмы и по пошлее, тутошний юмор даже до комедий Саши Коэна не дотягивает, да что там, тут даже за весь мульт ни одного члена, ни одной пелотки не засветилось. По итогу имеем пошлый мульт с довольно оригинальным сюжетом, смешных шуток было маловато, да еще подвела озвучка, которая не соответствовала атмосфере мульта, видимо в угоду цензуры. Думаю ор был выше гор и главной задачей этого ора вижу только оградить детей от просмотра, которые так или иначе все-равно посмотрят.

_________________
i5@4.0Ghz, 8Gb RAM, Radeon R9 280x 3Gb, SSD, W8.1 x64 \ Xbox 360
info [Профиль]  [ЛС] 

JBar

Стаж: 7 лет 10 месяцев

Сообщений: 410

Рейтинг

post 26-Окт-2016 01:27 (спустя 15 минут) [-]0[+]

[Цитировать] 

Ну если все это воспринимать как сатиру на наше современное общество, то еще терпимо....но серьезно к данному шедевру относиться явно не стоит.

Разочарован.
info [Профиль]  [ЛС] 

Qaddafi

Пол: Пол:Муж

Стаж: 1 год 3 месяца

Сообщений: 2

Россия
Рейтинг

post 26-Окт-2016 10:57 (спустя 9 часов) [-]4[+]

[Цитировать] 

Бред полный!!! Такое нельзя смотреть!!!
info [Профиль]  [ЛС] 

kraftsstanger

Пол: Пол:Муж

Стаж: 4 года 4 месяца

Сообщений: 18

Россия
Рейтинг

post 28-Окт-2016 04:18 (спустя 1 день 17 часов) [-]1[+]

[Цитировать] 

смотреть только в оригинале. наш дубляж полностью убил весь юмор. отсюда и низкие рейтинги.
info [Профиль]  [ЛС] 

kurajmax

Пол: Пол:Муж

Стаж: 6 лет 3 месяца

Сообщений: 30

Россия
Рейтинг

post 30-Окт-2016 21:03 (спустя 2 дня 16 часов) [-]1[+]

[Цитировать] 

Трэш)
info [Профиль]  [ЛС] 

Braksus

Пол: Пол:Муж

Стаж: 5 лет 10 месяцев

Сообщений: 8

Украина
Рейтинг

post 07-Ноя-2016 20:09 (спустя 7 дней) [-]2[+]

[Цитировать] 

Концовка ЖЕСТЬ Улыбаюсь)))
info [Профиль]  [ЛС] 

Selphy777

Пол: Пол:Муж

Стаж: 6 лет 2 месяца

Сообщений: 49

Япония
Рейтинг

post 08-Ноя-2016 18:07 (спустя 21 час) [-]1[+]

[Цитировать] 

kraftsstanger писал(а):

смотреть только в оригинале. наш дубляж полностью убил весь юмор. отсюда и низкие рейтинги.
Т.е. 5,9 Кинопоиска - низкий рейтинг из-за дубляжа, а вот 6,5 Imdb - это уже огого какой рейт!? Там то на дубляж не спишешь.
info [Профиль]  [ЛС] 

leopold30

Пол: Пол:Муж

Стаж: 7 лет 4 месяца

Сообщений: 57

Рейтинг

post 26-Ноя-2016 21:04 (спустя 18 дней) [-]-1[+]

[Цитировать] 

Те кто не смотрел ничего не потеряли, скорее даже выиграли.
Рекомендовать могу лишь тем, кто любит пиво, диван да камеди клаб.
Рейтинг сильно завышен, моя оценка 3.5 из 10.
info [Профиль]  [ЛС] 
Показать сообщения:    
Ответить на тему

Текущее время: 21-Янв 18:46

Часовой пояс: GMT + 4



Вы не можете начинать темы
Вы не можете отвечать на сообщения
Вы не можете редактировать свои сообщения
Вы не можете удалять свои сообщения
Вы не можете голосовать в опросах
Вы не можете прикреплять файлы к сообщениям
Вы не можете скачивать файлы