Ошибка

(Nu Metal / Alternative Metal) Korn - The Serenity Of Suffering (Japanese Edition) - 2016, FLAC (tracks+scans+.cue), lossless

Ответить на тему
 
Автор Сообщение

Pray

Пол: Пол:Муж

Стаж: 5 лет 8 месяцев

Сообщений: 960

Украина
Рейтинг

post 20-Окт-2016 21:03 1[+]

[Цитировать] 

Korn - The Serenity Of Suffering (Japanese Edition)


Год выпуска: 2016
Страна производитель диска: Japan
Жанр: Nu Metal / Alternative Metal
Аудиокодек: FLAC (*.flac)
Тип рипа: tracks+scans+.cue
Битрейт аудио: lossless
Продолжительность: 00:52:25
Треклист:
01 Insane
02 Rotting In Vain
03 Black Is The Soul
04 The Hating
05 A Different World (Feat. Corey Taylor)
06 Take Me
07 Everything Falls Apart
08 Die Yet Another Night
09 When You're Not There
10 Next In Line
11 Please Come For Me
12 Baby
13 Calling Me Too Soon
14 Out Of You (входит только в Japanese Edition)
Одна из самых влиятельных рок-групп современности – Korn – выпускает долгожданный 12-й студийный альбом под названием «The Serenity Of Suffering». Продюсером пластинки выступил Ник Рэскаленикс, работавший с такими группами, как Foo Fighters, Deftones и Mastodon, а один из треков был записан совместно с Кори Тэйлором из Slipknot и Stone Sour.

Премьера первого сингла, «Rotting In Vain», прошла 16 июля перед 25 тысячами зрителей во время выступления группы на фестивале в Чикаго.

««Rotting In Vain» повествует о черных полосах в нашей жизни, о тех ситуациях, которые нам не по душе. Это могут быть неудачи в отношениях, или чувство, будто ты застрял на одном месте. Ты не доволен тем, как складывается твоя жизнь и чувствуешь себя настолько подавленным и угнетенным, что словно гниешь изнутри, - говорит Джонатан Дэвис, – Понадобятся годы, чтобы понять, как выбраться из такой ямы. Вот откуда мы взяли идею для «Rotting In Vain». Ты сидишь на одном месте и буквально умираешь, и из года в год ничего не меняется, ты не можешь выдернуть себя из этого состояния. Вот о чем наша песня».

Вместе с Korn в клипе на «Rotting In Vain» снялся актер из нашумевшего сериала «Сыны Анархии» - Томми Флэнаган (Tommy Flanagan). Видео получилось мрачным – оно очень точно подчеркивает настроение самой песни.

Код:

Exact Audio Copy V1.3 from 2. September 2016

EAC extraction logfile from 12. November 2016, 13:54

Korn / The Serenity Of Suffering (Japanese Edition)

Used drive  : HL-DT-STBD-RE BP50NB40   Adapter: 1  ID: 0

Read mode               : Secure
Utilize accurate stream : Yes
Defeat audio cache      : Yes
Make use of C2 pointers : No

Read offset correction                      : 6
Overread into Lead-In and Lead-Out          : No
Fill up missing offset samples with silence : Yes
Delete leading and trailing silent blocks   : No
Null samples used in CRC calculations       : Yes
Used interface                              : Native Win32 interface for Win NT & 2000
Gap handling                                : Appended to previous track

Used output format              : User Defined Encoder
Selected bitrate                : 1024 kBit/s
Quality                         : High
Add ID3 tag                     : No
Command line compressor         : C:\Program Files (x86)\Exact Audio Copy\Flac\flac.exe
Additional command line options : -8 -V -T "TITLE=%title%" -T "ARTIST=%artist%" -T "ALBUMARTIST=%albumartist%" -T "ALBUM=%albumtitle%" -T "DATE=%year%" -T "TRACKNUMBER=%tracknr%" -T "TRACKTOTAL=%numtracks%" -T "GENRE=%genre%" -T "COMMENT=%comment%" -T "PERFORMER=%albuminterpret%" -T "COMPOSER=%composer%" %source% -o %dest%

TOC of the extracted CD

     Track |   Start  |  Length  | Start sector | End sector
    ---------------------------------------------------------
        1  |  0:00.00 |  3:50.04 |         0    |    17253
        2  |  3:50.04 |  3:33.00 |     17254    |    33228
        3  |  7:23.04 |  4:01.11 |     33229    |    51314
        4  | 11:24.15 |  4:22.55 |     51315    |    71019
        5  | 15:46.70 |  3:20.72 |     71020    |    86091
        6  | 19:07.67 |  3:00.12 |     86092    |    99603
        7  | 22:08.04 |  4:17.07 |     99604    |   118885
        8  | 26:25.11 |  4:28.44 |    118886    |   139029
        9  | 30:53.55 |  3:24.56 |    139030    |   154385
       10  | 34:18.36 |  3:28.29 |    154386    |   170014
       11  | 37:46.65 |  2:53.37 |    170015    |   183026
       12  | 40:40.27 |  4:55.72 |    183027    |   205223
       13  | 45:36.24 |  3:23.02 |    205224    |   220450
       14  | 48:59.26 |  3:26.08 |    220451    |   235908

Track  1

     Filename D:\01 Insane.wav

     Pre-gap length  0:00:02.00

     Peak level 100.0 %
     Extraction speed 2.2 X
     Track quality 99.9 %
     Test CRC 456EF333
     Copy CRC 456EF333
     Track not present in AccurateRip database
     Copy OK

Track  2

     Filename D:\02 Rotting In Vain.wav

     Peak level 100.0 %
     Extraction speed 2.9 X
     Track quality 100.0 %
     Test CRC DFA3A55F
     Copy CRC DFA3A55F
     Track not present in AccurateRip database
     Copy OK

Track  3

     Filename D:\03 Black Is The Soul.wav

     Peak level 100.0 %
     Extraction speed 3.2 X
     Track quality 100.0 %
     Test CRC F88F7843
     Copy CRC F88F7843
     Track not present in AccurateRip database
     Copy OK

Track  4

     Filename D:\04 The Hating.wav

     Peak level 100.0 %
     Extraction speed 3.5 X
     Track quality 100.0 %
     Test CRC BBABF479
     Copy CRC BBABF479
     Track not present in AccurateRip database
     Copy OK

Track  5

     Filename D:\05 A Different World (Feat. Corey Taylor).wav

     Peak level 100.0 %
     Extraction speed 3.6 X
     Track quality 100.0 %
     Test CRC 4FCEB8BC
     Copy CRC 4FCEB8BC
     Track not present in AccurateRip database
     Copy OK

Track  6

     Filename D:\06 Take Me.wav

     Peak level 100.0 %
     Extraction speed 3.7 X
     Track quality 100.0 %
     Test CRC 878A6526
     Copy CRC 878A6526
     Track not present in AccurateRip database
     Copy OK

Track  7

     Filename D:\07 Everything Falls Apart.wav

     Peak level 100.0 %
     Extraction speed 4.1 X
     Track quality 100.0 %
     Test CRC 8DC80727
     Copy CRC 8DC80727
     Track not present in AccurateRip database
     Copy OK

Track  8

     Filename D:\08 Die Yet Another Night.wav

     Peak level 100.0 %
     Extraction speed 3.6 X
     Track quality 99.9 %
     Test CRC 96203576
     Copy CRC 96203576
     Track not present in AccurateRip database
     Copy OK

Track  9

     Filename D:\09 When You're Not There.wav

     Peak level 100.0 %
     Extraction speed 4.4 X
     Track quality 100.0 %
     Test CRC 8D0940D3
     Copy CRC 8D0940D3
     Track not present in AccurateRip database
     Copy OK

Track 10

     Filename D:\10 Next In Line.wav

     Peak level 100.0 %
     Extraction speed 4.5 X
     Track quality 100.0 %
     Test CRC 7EF6CD41
     Copy CRC 7EF6CD41
     Track not present in AccurateRip database
     Copy OK

Track 11

     Filename D:\11 Please Come For Me.wav

     Peak level 100.0 %
     Extraction speed 4.5 X
     Track quality 100.0 %
     Test CRC 1E647DBA
     Copy CRC 1E647DBA
     Track not present in AccurateRip database
     Copy OK

Track 12

     Filename D:\12 Baby.wav

     Peak level 100.0 %
     Extraction speed 5.0 X
     Track quality 100.0 %
     Test CRC 8EF0AF4B
     Copy CRC 8EF0AF4B
     Track not present in AccurateRip database
     Copy OK

Track 13

     Filename D:\13 Calling Me Too Soon.wav

     Peak level 100.0 %
     Extraction speed 4.9 X
     Track quality 100.0 %
     Test CRC 3C291E14
     Copy CRC 3C291E14
     Track not present in AccurateRip database
     Copy OK

Track 14

     Filename D:\14 Out Of You.wav

     Peak level 100.0 %
     Extraction speed 5.0 X
     Track quality 100.0 %
     Test CRC B80EE34C
     Copy CRC B80EE34C
     Track not present in AccurateRip database
     Copy OK

None of the tracks are present in the AccurateRip database

No errors occurred

End of status report

==== Log checksum 87C649B4A698C8FD2BAF522B63872A9CFC057B38A45B9CB09864C322DCF6EBC4 ====

Код:

REM GENRE "Nu Metal"
REM DATE 2016
REM DISCID C70C490E
REM COMMENT "ExactAudioCopy v1.3"
PERFORMER "Korn"
TITLE "The Serenity Of Suffering (Japanese Edition)"
FILE "01 Insane.wav" WAVE
  TRACK 01 AUDIO
    TITLE "Insane"
    PERFORMER "Korn"
    INDEX 01 00:00:00
FILE "02 Rotting In Vain.wav" WAVE
  TRACK 02 AUDIO
    TITLE "Rotting In Vain"
    PERFORMER "Korn"
    INDEX 01 00:00:00
FILE "03 Black Is The Soul.wav" WAVE
  TRACK 03 AUDIO
    TITLE "Black Is The Soul"
    PERFORMER "Korn"
    INDEX 01 00:00:00
FILE "04 The Hating.wav" WAVE
  TRACK 04 AUDIO
    TITLE "The Hating"
    PERFORMER "Korn"
    INDEX 01 00:00:00
FILE "05 A Different World (Feat. Corey Taylor).wav" WAVE
  TRACK 05 AUDIO
    TITLE "A Different World (Feat. Corey Taylor)"
    PERFORMER "Korn"
    INDEX 01 00:00:00
FILE "06 Take Me.wav" WAVE
  TRACK 06 AUDIO
    TITLE "Take Me"
    PERFORMER "Korn"
    INDEX 01 00:00:00
FILE "07 Everything Falls Apart.wav" WAVE
  TRACK 07 AUDIO
    TITLE "Everything Falls Apart"
    PERFORMER "Korn"
    INDEX 01 00:00:00
FILE "08 Die Yet Another Night.wav" WAVE
  TRACK 08 AUDIO
    TITLE "Die Yet Another Night"
    PERFORMER "Korn"
    INDEX 01 00:00:00
FILE "09 When You're Not There.wav" WAVE
  TRACK 09 AUDIO
    TITLE "When You're Not There"
    PERFORMER "Korn"
    INDEX 01 00:00:00
FILE "10 Next In Line.wav" WAVE
  TRACK 10 AUDIO
    TITLE "Next In Line"
    PERFORMER "Korn"
    INDEX 01 00:00:00
FILE "11 Please Come For Me.wav" WAVE
  TRACK 11 AUDIO
    TITLE "Please Come For Me"
    PERFORMER "Korn"
    INDEX 01 00:00:00
FILE "12 Baby.wav" WAVE
  TRACK 12 AUDIO
    TITLE "Baby"
    PERFORMER "Korn"
    INDEX 01 00:00:00
FILE "13 Calling Me Too Soon.wav" WAVE
  TRACK 13 AUDIO
    TITLE "Calling Me Too Soon"
    PERFORMER "Korn"
    INDEX 01 00:00:00
FILE "14 Out Of You.wav" WAVE
  TRACK 14 AUDIO
    TITLE "Out Of You"
    PERFORMER "Korn"
    INDEX 01 00:00:00
          
          
          

info [Профиль]  [ЛС] 

askaelw

Пол: Пол:Муж

Стаж: 4 года 4 месяца

Сообщений: 191

Рейтинг

post 21-Окт-2016 09:16 (спустя 12 часов) [-]-3[+]

[Цитировать] 

A Different World - однозначно лучший трек с альбома.
info [Профиль]  [ЛС] 

jipers-skripers

Пол: Пол:Муж

Стаж: 7 лет 7 месяцев

Сообщений: 40

Россия
Рейтинг

post 21-Окт-2016 11:47 (спустя 2 часа 30 минут) [-]-2[+]

[Цитировать] 

История о том как Девис обосрал очередной альбом, иногда пробивается тот самый корн, но в основе лежит попсовое уныние

Calling Me Too Soon - еще более-менее съедобная, а успех в том что идет 3 минуты.
info [Профиль]  [ЛС] 

tk-430

Пол: Пол:Муж

Стаж: 7 лет 5 месяцев

Сообщений: 140

Россия
Рейтинг

post 21-Окт-2016 18:15 (спустя 6 часов) [-]-5[+]

[Цитировать] 

У группы, как всегда, две проблемы последних лет: Как уже сказано выше - Дэвис, который своим вокалом тянет в See you on the other side и untitled. И ударник Рэй, который играет как топор, при том, что весьма скилловый дядька. Мостик песни Black Is The Soul как бы издевка, смотрите как мы можем, но не хотим.

По первому прослушиванию 3\5. Даже бонусы в этот раз не оч
info [Профиль]  [ЛС] 

Pray

Пол: Пол:Муж

Стаж: 5 лет 8 месяцев

Сообщений: 960

Украина
Рейтинг

post 21-Окт-2016 23:04 (спустя 4 часа) [-]0[+]

[Цитировать] 

Вполне, хороший альбом! Если, вспомнить старые(1-е) альбомы группы то, не всегда там был "Core" и "Гроулинг", а так же, как и тут куплеты, в стиле "гранжа" и "хардкор-панка".

Сингл "Everything Falls Apart" вообще, меня затянул и сейчас, по кругу в плейлисте играет. Припев шикарный и под конец песни, гроулинг с припевом тащит.

_________________
MSI Z77A-G43 / Intel Core i5 3570K 3.4 ГГц / Gigabyte GeForce GTX 770 OC 4 Гб Rev. 2.0 / 8 Гб ОЗУ
Steam
info [Профиль]  [ЛС] 

NetG

Стаж: 7 лет 3 месяца

Сообщений: 14

СССР
Рейтинг

post 22-Окт-2016 00:45 (спустя 1 час 40 минут) [-]0[+]

[Цитировать] 

Годно. на 4 из 5
info [Профиль]  [ЛС] 

jipers-skripers

Пол: Пол:Муж

Стаж: 7 лет 7 месяцев

Сообщений: 40

Россия
Рейтинг

post 22-Окт-2016 04:04 (спустя 3 часа) [-]0[+]

[Цитировать] 

Pray писал(а):

Вполне, хороший альбом! Если, вспомнить старые(1-е) альбомы группы то, не всегда там был "Core" и "Гроулинг", а так же, как и тут куплеты, в стиле "гранжа" и "хардкор-панка".

Сингл "Everything Falls Apart" вообще, меня затянул и сейчас, по кругу в плейлисте играет. Припев шикарный и под конец песни, гроулинг с припевом тащит.
Есть две стадии Девиса:

Девис тащит и отдается
Девис - унылая помойка

Первые пять альбомов тут лучше вообще не упоминать, один твист заткнет этот альбом.

Новый, поставленный гроул Девиса конечно правильный в технике, но он пустой и без эмоций.

Я не хейтер, просто были определенные надежды на альбом, надеялся Хэд поможет но увы тут 2.5/5 думаю выше ценители не поставят.
п.с. Самоплагиат уровень - бог
info [Профиль]  [ЛС] 

tk-430

Пол: Пол:Муж

Стаж: 7 лет 5 месяцев

Сообщений: 140

Россия
Рейтинг

post 25-Окт-2016 05:07 (спустя 3 дня) [-]0[+]

[Цитировать] 

Цитата:

Новый, поставленный гроул Девиса конечно правильный в технике, но он пустой и без эмоций.
Ну почему же новый? Он весь Take a look in the mirror так прогроулил)

Цитата:

Я не хейтер, просто были определенные надежды на альбом, надеялся Хэд поможет но увы тут 2.5/5 думаю выше ценители не поставят.
п.с. Самоплагиат уровень - бог
+1 ко всему, к самоплагиату так +10
info [Профиль]  [ЛС] 

Pray

Пол: Пол:Муж

Стаж: 5 лет 8 месяцев

Сообщений: 960

Украина
Рейтинг

post 11-Мар-2017 13:36 (спустя 4 месяца 17 дней) [-]0[+]

[Цитировать] 

Торрент обновлен 11.03.2017!
Релиз заменён на Japanese Edition которая включает в себя дополнительный трек "Out Of You".

_________________
MSI Z77A-G43 / Intel Core i5 3570K 3.4 ГГц / Gigabyte GeForce GTX 770 OC 4 Гб Rev. 2.0 / 8 Гб ОЗУ
Steam
info [Профиль]  [ЛС] 

Spoilt

Стаж: 6 лет 6 месяцев

Сообщений: 3

Россия
Рейтинг

post 11-Мар-2017 18:32 (спустя 4 часа) [-]2[+]

[Цитировать] 

2/5 альбому? Вы верно шутите? Это лучший альбом прошлого года что мне довелось послушать.
info [Профиль]  [ЛС] 

SonicPaul

Пол: Пол:Муж

Стаж: 7 лет

Сообщений: 168

Япония
Рейтинг

post 11-Мар-2017 18:46 (спустя 14 минут) [-]2[+]

[Цитировать] 

Лучший альбом 2016. Insane понравилась больше всего. Хотя и всё остальное на высоте.
info [Профиль]  [ЛС] 

oXXXygen

Пол: Пол:Муж

Стаж: 3 года 3 месяца

Сообщений: 11

Польша
Рейтинг

post 13-Мар-2017 00:59 (спустя 1 день 6 часов) [-]1[+]

[Цитировать] 

Цитата:

Лучший альбом 2016.
+1
Как бы там не критиковали, но это лучшее, что было в этом направлении за долгое время.

_________________
а что вы читали? Гоголя или Толстого? Потому, что если бы вы читали форум, то вы бы уже давно нашли ответы на все вопросы.
info [Профиль]  [ЛС] 
Показать сообщения:    
Ответить на тему

Текущее время: 31-Мар 02:43

Часовой пояс: GMT + 4



Вы не можете начинать темы
Вы не можете отвечать на сообщения
Вы не можете редактировать свои сообщения
Вы не можете удалять свои сообщения
Вы не можете голосовать в опросах
Вы не можете прикреплять файлы к сообщениям
Вы не можете скачивать файлы