Ошибка

Код Квалидеи / Qualidea Code (TV) [1-12 из 12] [2016] [Приключения, боевик] [HDTV720p] [Любительская (Многоголосая)]

Ответить на тему
 
Автор Сообщение

Chel90RUS

Пол: Пол:Муж

Стаж: 5 лет 5 месяцев

Сообщений: 413

Россия
Рейтинг

post 17-Окт-2016 18:06 0[+]

[Цитировать] 

pic="http://static2.anidub.com/tracker/poster/4214d55966.jpg"
Код Квалидеи
Qualidea Code / クオリディア・コード

Год выпуска: 2016
Жанр: Приключения, боевик
Страна: Япония
Тип: HDTV
Продолжительность: 12 серий ~ 25 мин
Дата выпуска: c 10.07.2016 по 25.09.2016
Режиссер: Кавамура Кэнъити
Автор оригинала / Сценарист: Сагара Со, Татибана Коси, Ватари Ватару
Студия: A-1 Pictures
Озвучено: Гамлетка Цезаревна, 9й Неизвестный, Jade
Перевод: Undokaktyz (1), AOS (2-12)
Тайминг и работа со звуком: Kombik
Формат файла: Mp4
Аудио: AAC 48000Hz stereo 171kbps [A: aac lc, 48000 Hz, stereo, 171 kb/s]
Видео: MPEG4 Video (H264) 1280x720 23.976fps 2929kbps [V: 264 (h264 high L4.1, yuv420p, 1280x720, 2929 kb/s)]

General
Complete name : \[AniDub]_Qualidea_Code_[01]_[720p_x264_Aac]_[MVO].mp4
Format : MPEG-4
Format profile : Base Media
Codec ID : isom
File size : 533 MiB
Duration : 24mn 0s
Overall bit rate mode : Variable
Overall bit rate : 3 103 Kbps
Encoded date : UTC 2016-08-12 00:36:07
Tagged date : UTC 2016-08-12 00:36:07
Writing application : Yamb 2.1.0.0

Video
ID : 1
Format : AVC
Format/Info : Advanced Video Codec
Format profile : High@L4.1
Format settings, CABAC : Yes
Format settings, ReFrames : 4 frames
Codec ID : avc1
Codec ID/Info : Advanced Video Coding
Duration : 23mn 59s
Bit rate : 2 930 Kbps
Maximum bit rate : 37.3 Mbps
Width : 1 280 pixels
Height : 720 pixels
Display aspect ratio : 16:9
Frame rate mode : Constant
Frame rate : 23.976 fps
Color space : YUV
Chroma subsampling : 4:2:0
Bit depth : 8 bits
Scan type : Progressive
Bits/(Pixel*Frame) : 0.133
Stream size : 503 MiB (94%)
Title : 264
Writing library : x264 core 129 r2245+729M 1a52e03
Encoding settings : cabac=1 / ref=4 / deblock=1:1:-1 / analyse=0x3:0x113 / me=umh / subme=9 / psy=1 / fade_compensate=0.00 / psy_rd=1.00:0.00 / mixed_ref=1 / me_range=24 / chroma_me=1 / trellis=2 / 8x8dct=1 / cqm=0 / deadzone=21,11 / fast_pskip=1 / chroma_qp_offset=-2 / threads=8 / lookahead_threads=1 / sliced_threads=0 / nr=0 / decimate=1 / interlaced=0 / bluray_compat=0 / constrained_intra=0 / fgo=0 / bframes=9 / b_pyramid=2 / b_adapt=2 / b_bias=0 / direct=1 / weightb=1 / open_gop=0 / weightp=2 / keyint=240 / keyint_min=24 / scenecut=40 / intra_refresh=0 / rc=crf / mbtree=0 / crf=17.5 / qcomp=0.72 / qpmin=0 / qpmax=69 / qpstep=4 / ip_ratio=1.40 / pb_ratio=1.30 / aq=1:0.85
Encoded date : UTC 2016-07-10 09:20:25
Tagged date : UTC 2016-08-12 00:36:52
Color range : Limited
Color primaries : BT.709
Transfer characteristics : BT.709
Matrix coefficients : BT.709

Audio
ID : 2
Format : AAC
Format/Info : Advanced Audio Codec
Format profile : LC
Codec ID : 40
Duration : 24mn 0s
Bit rate mode : Variable
Bit rate : 172 Kbps
Maximum bit rate : 237 Kbps
Channel(s) : 2 channels
Channel positions : Front: L R
Sampling rate : 48.0 KHz
Compression mode : Lossy
Stream size : 29.5 MiB (6%)
Encoded date : UTC 2016-08-12 00:36:48
Tagged date : UTC 2016-08-12 00:36:52


Описание: Действия происходят в альтернативной вселенной, где уже несколько лет человечество ведет войну с «неизвестным» врагом. Когда уже нечего противопоставить против неведомого врага, остается лишь одна надежда: дети, которые в целях безопасности были погружены в глубокий сон и получили различные сверхъестественные способности после пробуждения. С этого времени их основная задача — защита своей страны от «неизвестных» врагов, проникающих через врата в Токийском заливе. Сумеют ли они защитить дорогое в этой войне?
info [Профиль]  [ЛС] 
Показать сообщения:    
Ответить на тему

Текущее время: 06-Дек 23:50

Часовой пояс: GMT + 4



Вы не можете начинать темы
Вы не можете отвечать на сообщения
Вы не можете редактировать свои сообщения
Вы не можете удалять свои сообщения
Вы не можете голосовать в опросах
Вы не можете прикреплять файлы к сообщениям
Вы не можете скачивать файлы