Ошибка

За гранью миров / Beyond the Worlds (TV-1) [1-13 из 13] [2016] [Приключения, фэнтези, комедия, пародия, драма] [WebRip720p] [Любительская (Одноголосая)]

Ответить на тему
 
Автор Сообщение

Chel90RUS

Пол: Пол:Муж

Стаж: 5 лет 5 месяцев

Сообщений: 413

Россия
Рейтинг

post 17-Окт-2016 00:35 0[+]

[Цитировать] 

pic="http://static2.anidub.com/tracker/poster/b13b8017a7.jpg"
За гранью миров
Beyond the Worlds

Год выпуска: 2016
Жанр: Приключения, фэнтези, комедия, пародия, драма
Страна: Китай
Тип: Web
Продолжительность: 13 серий ~ 15-60 мин
Озвучено: JAM
Перевод: Jeka, Cuba77
Тайминг и работа со звуком: Al'pair, NeSqUiK
Формат файла: Mp4
Аудио: AAC 44100Hz stereo 192kbps [A: IsoMedia File Produced by Google, 5-11-2011 [rus] (aac lc, 44100 Hz, stereo, 192 kb/s)]
Видео: MPEG4 Video (H264) 1280x720 23.976fps 1596kbps [V: h264 high L3.1, yuv420p, 1280x720, 1596 kb/s]

General
Complete name : \[AniDub]_Beyond_the_Worlds_[01]_[JAM].mp4
Format : MPEG-4
Format profile : Base Media / Version 2
Codec ID : mp42
File size : 179 MiB
Duration : 13mn 59s
Overall bit rate mode : Variable
Overall bit rate : 1 791 Kbps
Encoded date : UTC 2016-01-07 05:44:53
Tagged date : UTC 2016-01-07 05:44:53
gsst : 0
gstd : 839725

Video
ID : 1
Format : AVC
Format/Info : Advanced Video Codec
Format profile : High@L3.1
Format settings, CABAC : Yes
Format settings, ReFrames : 1 frame
Codec ID : avc1
Codec ID/Info : Advanced Video Coding
Duration : 13mn 59s
Bit rate : 1 596 Kbps
Maximum bit rate : 4 876 Kbps
Width : 1 280 pixels
Height : 720 pixels
Display aspect ratio : 16:9
Frame rate mode : Constant
Frame rate : 23.976 fps
Color space : YUV
Chroma subsampling : 4:2:0
Bit depth : 8 bits
Scan type : Progressive
Bits/(Pixel*Frame) : 0.072
Stream size : 160 MiB (89%)
Tagged date : UTC 2016-01-07 05:44:59
Color range : Limited
Color primaries : BT.709
Transfer characteristics : BT.709
Matrix coefficients : BT.709

Audio
ID : 2
Format : AAC
Format/Info : Advanced Audio Codec
Format profile : LC
Codec ID : 40
Duration : 13mn 59s
Bit rate mode : Variable
Bit rate : 192 Kbps
Maximum bit rate : 201 Kbps
Channel(s) : 2 channels
Channel positions : Front: L R
Sampling rate : 44.1 KHz
Compression mode : Lossy
Stream size : 19.2 MiB (11%)
Title : IsoMedia File Produced by Google, 5-11-2011
Language : Russian
Encoded date : UTC 2016-01-07 05:44:57
Tagged date : UTC 2016-01-07 05:44:59


Описание: Независимый анимационный проект от китайцев, доказавшей всем, что можно делать круто и весело.
Пародия на все игровые и киберфэнтезийные тайтлы.
Где-то далеко, за границами Вселенной, существует мир героев и их реинкарнаций. Они вечно сражаются за контроль над этим миром хаоса. И вот в одном таком сражении, один неприметный бот обретает волю и разум...
info [Профиль]  [ЛС] 

Alexxator

Стаж: 6 лет 2 месяца

Сообщений: 880

Рейтинг

post 17-Окт-2016 05:21 (спустя 4 часа) [-]0[+]

[Цитировать] 

Или "Отгадай героя"
info [Профиль]  [ЛС] 

Hevlok

Стаж: 7 лет 4 месяца

Сообщений: 45

Россия
Рейтинг

post 17-Окт-2016 20:02 (спустя 14 часов) [-]0[+]

[Цитировать] 

И казалось бы причем тут Heroes of the Storm...

_________________
Каждому - свое.
info [Профиль]  [ЛС] 
Показать сообщения:    
Ответить на тему

Текущее время: 06-Дек 22:03

Часовой пояс: GMT + 4



Вы не можете начинать темы
Вы не можете отвечать на сообщения
Вы не можете редактировать свои сообщения
Вы не можете удалять свои сообщения
Вы не можете голосовать в опросах
Вы не можете прикреплять файлы к сообщениям
Вы не можете скачивать файлы