Ошибка

Апельсин / Orange (TV) [1-13 из 13] [2016] [Драма, романтика, школа, сёдзе] [HDTV720p] [Прфессиональная (Многоголосая)]

Ответить на тему
 
Автор Сообщение

Chel90RUS

Пол: Пол:Муж

Стаж: 5 лет 5 месяцев

Сообщений: 413

Россия
Рейтинг

post 08-Окт-2016 23:24 0[+]

[Цитировать] 

pic="http://static2.anidub.com/tracker/poster/d36e05e35c.jpg"
Апельсин
Orange / オレンジ

Год выпуска: 2016
Жанр: Драма, романтика, школа, сёдзе
Страна: Япония
Тип: HDTV
Продолжительность: 13 серий ~ 25 мин
Дата выпуска: c 04.07.2016 по 26.09.2016
Режиссер: Хамасаки Хироси
Автор оригинала / Сценарист: Такано Итиго
Студия: TMS
Озвучено: Студийная банда AD: Торгиль, Давид Петросян, BalFor, Esther, Demetra, Влад Дуров, JAM, Cuba77
Перевод: GoggerToy
Тайминг и работа со звуком: BalFor
Формат файла: Mp4
Аудио: AAC 48000Hz stereo 185kbps [A: ?????????? ????? Apple [eng] (aac lc, 48000 Hz, stereo, 185 kb/s)]
Видео: MPEG4 Video (H264) 1280x720 23.976fps 1827kbps [V: 264 (h264 high L4.1, yuv420p, 1280x720, 1827 kb/s)]

General
Complete name : \[AniDub]_Orange_[01]_[720p_x264_Aac]_[ADStudio].mp4
Format : MPEG-4
Format profile : Base Media
Codec ID : isom
File size : 346 MiB
Duration : 24mn 5s
Overall bit rate mode : Variable
Overall bit rate : 2 010 Kbps
Encoded date : UTC 2016-07-12 18:57:29
Tagged date : UTC 2016-07-12 18:57:29
Writing application : Yamb 2.1.0.0

Video
ID : 1
Format : AVC
Format/Info : Advanced Video Codec
Format profile : High@L4.1
Format settings, CABAC : Yes
Format settings, ReFrames : 4 frames
Codec ID : avc1
Codec ID/Info : Advanced Video Coding
Duration : 23mn 59s
Bit rate : 1 827 Kbps
Maximum bit rate : 16.0 Mbps
Width : 1 280 pixels
Height : 720 pixels
Display aspect ratio : 16:9
Frame rate mode : Constant
Frame rate : 23.976 fps
Color space : YUV
Chroma subsampling : 4:2:0
Bit depth : 8 bits
Scan type : Progressive
Bits/(Pixel*Frame) : 0.083
Stream size : 314 MiB (91%)
Title : 264
Writing library : x264 core 129 r2245+729M 1a52e03
Encoding settings : cabac=1 / ref=4 / deblock=1:1:-1 / analyse=0x3:0x113 / me=umh / subme=9 / psy=1 / fade_compensate=0.00 / psy_rd=1.00:0.00 / mixed_ref=1 / me_range=24 / chroma_me=1 / trellis=2 / 8x8dct=1 / cqm=0 / deadzone=21,11 / fast_pskip=1 / chroma_qp_offset=-2 / threads=8 / lookahead_threads=1 / sliced_threads=0 / nr=0 / decimate=1 / interlaced=0 / bluray_compat=0 / constrained_intra=0 / fgo=0 / bframes=9 / b_pyramid=2 / b_adapt=2 / b_bias=0 / direct=1 / weightb=1 / open_gop=0 / weightp=2 / keyint=240 / keyint_min=24 / scenecut=40 / intra_refresh=0 / rc=crf / mbtree=0 / crf=17.5 / qcomp=0.72 / qpmin=0 / qpmax=69 / qpstep=4 / ip_ratio=1.40 / pb_ratio=1.30 / aq=1:0.85
Encoded date : UTC 2016-07-03 19:54:37
Tagged date : UTC 2016-07-12 18:57:58
Color range : Limited
Color primaries : BT.709
Transfer characteristics : BT.709
Matrix coefficients : BT.709

Audio
ID : 2
Format : AAC
Format/Info : Advanced Audio Codec
Format profile : LC
Codec ID : 40
Duration : 24mn 5s
Bit rate mode : Variable
Bit rate : 186 Kbps
Maximum bit rate : 279 Kbps
Channel(s) : 2 channels
Channel positions : Front: L R
Sampling rate : 48.0 KHz
Compression mode : Lossy
Stream size : 32.0 MiB (9%)
Title : ?????????? ????? Apple
Language : English
Encoded date : UTC 2016-07-12 18:57:58
Tagged date : UTC 2016-07-12 18:57:58


Описание: Весной 16-летняя Такемия Нахо получает странное, но подробное письмо от взрослой себя из 10-летнего будущего. Сначала она подумала, что это чья-то шутка, но потом события, о которых говорится в письме, как, например, появление новичка в классе, действительно происходят. Спустя почти две недели после перевода Нарусе Какеру в школу, Нахо заканчивает читать письмо. В письме 26-летняя Нахо сообщает 16-летней, что она больше всего на свете жалеет о том, что Какеру больше нет с ними в будущем, и просит ее, чтобы она позаботилась о нем.
info [Профиль]  [ЛС] 
Показать сообщения:    
Ответить на тему

Текущее время: 11-Дек 00:27

Часовой пояс: GMT + 4



Вы не можете начинать темы
Вы не можете отвечать на сообщения
Вы не можете редактировать свои сообщения
Вы не можете удалять свои сообщения
Вы не можете голосовать в опросах
Вы не можете прикреплять файлы к сообщениям
Вы не можете скачивать файлы