Ошибка

Полулюди /Ajin [TV-2] [1-9 из 12] [2016] [Приключения, Ужасы, Сейнен, Сверхъестественное, Детектив] [HDTVRip] [720p] [Субтитры (JAP)]

Ответить на тему
 
Автор Сообщение

anoningen

Стаж: 3 года 6 месяцев

Сообщений: 326

Самоа
Рейтинг

post 08-Окт-2016 21:20 0[+]

[Цитировать] 

Полулюди
Ajin | 亜人

Год выпуска:
2016 г.
Тип: TV
Жанр: Приключения, Ужасы, Сейнен, Сверхъестественное, Детектив
Режиссер: Сэсита Хироюки
Автор оригинала: Сакурай Гамон
Студия:
Продолжительность: >12 эп. по 25 мин
Русские субтитры: ASS, внешним файлом

Переводчик: Anku
Редактор: mutagenb

Описание: Полулюди — существа, которые не могут умереть. Впервые они появились семнадцать лет назад на поле битвы в Африке. Подобные случаи стали повторяться, и человечество было вынуждено признать, что столкнулось с необъяснимым феноменом. Но, кроме факта существования, о полулюдях практически ничего неизвестно. Поэтому правительство объявило награду за поимку «живого» экземпляра в целях исследования.
Настоящее время. Обычный японский школьник предвкушает свои обычные японские летние каникулы, но не тут-то было... За это лето он явно изменится...
Автор рипа: Ohys-Raws
Качество: HDTVRip
Формат видео: MPEG-4
Видео: AVC, 8 бит, 1280x720; 23.976 кадра/сек; 2303 Кбит/сек, (16:9)
Аудио: AAC, 48,0 КГц, переменный 204~244 Кбит/сек, 2 канала
Общее
Полное имя : G:\Anime\Ajin TV-2\[Ohys-Raws] Ajin 2 - 01 (TBS 1280x720 x264 AAC).mp4
Формат : MPEG-4
Профиль формата : Base Media
Идентификатор кодека : isom (isom/avc1)
Размер файла : 439 Мбайт
Продолжительность : 24 м.
Режим общего битрейта : Переменный
Общий поток : 2511 Кбит/сек
Дата кодирования : UTC 2016-10-07 18:45:44
Дата пометки : UTC 2016-10-07 18:45:44

Видео
Идентификатор : 1
Формат : AVC
Формат/Информация : Advanced Video Codec
Профиль формата : Main@L4.1
Параметр CABAC формата : Да
Параметр ReFrames формата : 4 кадра
Идентификатор кодека : avc1
Идентификатор кодека/Информация : Advanced Video Coding
Продолжительность : 24 м.
Битрейт : 2303 Кбит/сек
Максимальный битрейт : 19,9 Мбит/сек
Ширина : 1280 пикселей
Высота : 720 пикселей
Соотношение сторон : 16:9
Режим частоты кадров : Постоянный
Частота кадров : 23,976 (24000/1001) кадра/сек
Цветовое пространство : YUV
Субдискретизация насыщенности : 4:2:0
Битовая глубина : 8 бит
Тип развёртки : Прогрессивная
Бит/(Пиксели*Кадры) : 0.104
Размер потока : 403 Мбайт (92%)
Библиотека кодирования : x264 core 148 r2721 72d53ab
Настройки программы : cabac=1 / ref=3 / deblock=1:0:0 / analyse=0x1:0x111 / me=hex / subme=7 / psy=1 / psy_rd=1.00:0.00 / mixed_ref=1 / me_range=16 / chroma_me=1 / trellis=1 / 8x8dct=0 / cqm=0 / deadzone=21,11 / fast_pskip=1 / chroma_qp_offset=-2 / threads=12 / lookahead_threads=2 / sliced_threads=0 / nr=0 / decimate=1 / interlaced=0 / bluray_compat=0 / constrained_intra=0 / bframes=3 / b_pyramid=2 / b_adapt=1 / b_bias=0 / direct=1 / weightb=1 / open_gop=0 / weightp=2 / keyint=240 / keyint_min=1 / scenecut=40 / intra_refresh=0 / rc_lookahead=40 / rc=crf / mbtree=1 / crf=20.0 / qcomp=0.60 / qpmin=0 / qpmax=69 / qpstep=4 / ip_ratio=1.40 / aq=1:1.50
Дата кодирования : UTC 2016-10-07 18:45:44
Дата пометки : UTC 2016-10-07 18:45:46
Цветовой диапазон : Limited
Основные цвета : BT.709
Характеристики трансфера : BT.709
Коэффициенты матрицы : BT.709

Аудио
Идентификатор : 2
Формат : AAC
Формат/Информация : Advanced Audio Codec
Профиль формата : LC
Идентификатор кодека : 40
Продолжительность : 24 м.
Вид битрейта : Переменный
Битрейт : 204 Кбит/сек
Максимальный битрейт : 244 Кбит/сек
Каналы : 2 канала
Расположение каналов : Front: L R
Частота : 48,0 КГц
Частота кадров : 46,875 кадров/сек (1024 spf)
Метод сжатия : С потерями
Размер потока : 35,6 Мбайт (8%)
Язык : Japanese
Дата кодирования : UTC 2016-10-07 18:34:01
Дата пометки : UTC 2016-10-07 18:45:46
05.12.2016 Добавлена 9 серия.
info [Профиль]  [ЛС] 

franck

Пол: Пол:Муж

Стаж: 7 лет 1 месяц

Сообщений: 141

Украина
Рейтинг

post 09-Окт-2016 13:02 (спустя 15 часов) [-]0[+]

[Цитировать] 

Пошла жара anime_10

_________________
info [Профиль]  [ЛС] 

profet88

Пол: Пол:Муж

Стаж: 2 года 4 месяца

Сообщений: 40

Россия
Рейтинг

post 12-Окт-2016 12:00 (спустя 2 дня 22 часа) [-]0[+]

[Цитировать] 

1й сезон достойный....ждал продолжения.
info [Профиль]  [ЛС] 

anoningen

Стаж: 3 года 6 месяцев

Сообщений: 326

Самоа
Рейтинг

post 17-Окт-2016 21:32 (спустя 5 дней) [-]0[+]

[Цитировать] 

Добавил 2 серию.
info [Профиль]  [ЛС] 

anoningen

Стаж: 3 года 6 месяцев

Сообщений: 326

Самоа
Рейтинг

post 24-Окт-2016 22:51 (спустя 7 дней) [-]0[+]

[Цитировать] 

Добавил 3 серию.
info [Профиль]  [ЛС] 

anoningen

Стаж: 3 года 6 месяцев

Сообщений: 326

Самоа
Рейтинг

post 30-Окт-2016 21:48 (спустя 5 дней) [-]1[+]

[Цитировать] 

Добавил 4 серию.
info [Профиль]  [ЛС] 

anoningen

Стаж: 3 года 6 месяцев

Сообщений: 326

Самоа
Рейтинг

post 07-Ноя-2016 22:22 (спустя 8 дней) [-]0[+]

[Цитировать] 

Добавил 5 серию.
info [Профиль]  [ЛС] 

anoningen

Стаж: 3 года 6 месяцев

Сообщений: 326

Самоа
Рейтинг

post 13-Ноя-2016 11:45 (спустя 5 дней) [-]0[+]

[Цитировать] 

Добавил 6 серию.
info [Профиль]  [ЛС] 

anoningen

Стаж: 3 года 6 месяцев

Сообщений: 326

Самоа
Рейтинг

post 20-Ноя-2016 12:24 (спустя 7 дней) [-]0[+]

[Цитировать] 

Добавил 7 серию.
info [Профиль]  [ЛС] 

putnik88

Стаж: 5 лет 4 месяца

Сообщений: 29

Сомали
Рейтинг

post 20-Ноя-2016 18:53 (спустя 6 часов) [-]0[+]

[Цитировать] 

уже второй раз пытаюсь скачать эту раздачу, сидов что нет никого?
info [Профиль]  [ЛС] 

anoningen

Стаж: 3 года 6 месяцев

Сообщений: 326

Самоа
Рейтинг

post 27-Ноя-2016 22:49 (спустя 7 дней) [-]0[+]

[Цитировать] 

Добавил 8 серию.
info [Профиль]  [ЛС] 

anoningen

Стаж: 3 года 6 месяцев

Сообщений: 326

Самоа
Рейтинг

post 05-Дек-2016 21:38 (спустя 7 дней) [-]0[+]

[Цитировать] 

Добавил 9 серию.
info [Профиль]  [ЛС] 
Показать сообщения:    
Ответить на тему

Текущее время: 08-Дек 20:14

Часовой пояс: GMT + 4



Вы не можете начинать темы
Вы не можете отвечать на сообщения
Вы не можете редактировать свои сообщения
Вы не можете удалять свои сообщения
Вы не можете голосовать в опросах
Вы не можете прикреплять файлы к сообщениям
Вы не можете скачивать файлы