Ошибка

С этим клубом точно что-то не так! / Kono Bijutsubu ni wa Mondai ga Aru! (TV) [1-12 из 12] [2016] [Комедия, романтика, школа] [HDTV720p] [Любительская (Многолосая)]

Ответить на тему
 
Автор Сообщение

Chel90RUS

Пол: Пол:Муж

Стаж: 5 лет 5 месяцев

Сообщений: 413

Россия
Рейтинг

post 03-Окт-2016 02:57 0[+]

[Цитировать] 

pic="http://static2.anidub.com/tracker/poster/aa54be46a3.jpg"
С этим клубом точно что-то не так!
Kono Bijutsubu ni wa Mondai ga Aru! / This Art Club Has a Problem! / この美術部には問題がある!

Год выпуска: 2016
Жанр: Комедия, романтика, школа
Страна: Япония
Тип: HDTV
Продолжительность: 12 серий ~ 25 мин
Дата выпуска: c 08.07.2016 по 23.09.2016
Режиссер: Ойкава Кэй
Автор оригинала / Сценарист: Имигимуру
Студия: Feel
Озвучено: Ancord, Jade
Перевод: Инна Астафьева
Тайминг и работа со звуком: Noah
Формат файла: Mp4
Аудио: AAC 48000Hz stereo 192kbps [A: English [eng] (aac lc, 48000 Hz, stereo, 192 kb/s)]
Видео: MPEG4 Video (H264) 1280x720 23.976fps 1647kbps [V: Alias Data Handler [eng] (h264 main L3.2, yuv420p, 1280x720, 1647 kb/s)]

General
Complete name : \[AniDub]_Kono_Bijutsubu_ni_wa_Mondai_ga_Aru!_[01]_[720p_x264_Aac]_[Ancord_Jade].mp4
Format : MPEG-4
Format profile : Base Media
Codec ID : isom
File size : 323 MiB
Duration : 24mn 32s
Overall bit rate mode : Variable
Overall bit rate : 1 843 Kbps
Encoded date : UTC 2016-07-09 10:41:32
Tagged date : UTC 2016-07-09 10:41:32
Writing application : Yamb 2.1.0.0

Video
ID : 1
Format : AVC
Format/Info : Advanced Video Codec
Format profile : Main@L3.2
Format settings, CABAC : Yes
Format settings, ReFrames : 3 frames
Codec ID : avc1
Codec ID/Info : Advanced Video Coding
Duration : 24mn 32s
Bit rate mode : Variable
Bit rate : 1 647 Kbps
Maximum bit rate : 9 850 Kbps
Width : 1 280 pixels
Height : 720 pixels
Display aspect ratio : 16:9
Frame rate mode : Variable
Frame rate : 23.976 fps
Minimum frame rate : 23.976 fps
Maximum frame rate : 23.988 fps
Standard : NTSC
Color space : YUV
Chroma subsampling : 4:2:0
Bit depth : 8 bits
Scan type : Progressive
Bits/(Pixel*Frame) : 0.075
Stream size : 289 MiB (89%)
Language : English
Encoded date : UTC 2016-07-10 10:03:56
Tagged date : UTC 2016-07-09 10:41:33
Color range : Limited

Audio
ID : 2
Format : AAC
Format/Info : Advanced Audio Codec
Format profile : LC
Codec ID : 40
Duration : 24mn 32s
Bit rate mode : Variable
Bit rate : 192 Kbps
Maximum bit rate : 196 Kbps
Channel(s) : 2 channels
Channel positions : Front: L R
Sampling rate : 48.0 KHz
Compression mode : Lossy
Stream size : 33.7 MiB (10%)
Language : English
Encoded date : UTC 2016-07-09 10:41:33
Tagged date : UTC 2016-07-09 10:41:33


Описание: Аниме расскажет о членах клуба искусств обычной средней школы. Субару Ичимаки великолепно рисует в манга-стиле, но хочет лишь нарисовать идеальную двухмерную невесту. Колетт вечно создает для других неприятности своим озорством. Президент клуба практически все время спит. В этой компании только один человек, Мидзуки Усами, хочет заниматься настоящей клубной деятельностью и пытается расшевелить на нее остальных.
info [Профиль]  [ЛС] 
Показать сообщения:    
Ответить на тему

Текущее время: 05-Дек 00:29

Часовой пояс: GMT + 4



Вы не можете начинать темы
Вы не можете отвечать на сообщения
Вы не можете редактировать свои сообщения
Вы не можете удалять свои сообщения
Вы не можете голосовать в опросах
Вы не можете прикреплять файлы к сообщениям
Вы не можете скачивать файлы