Ошибка
Загрузка...

Ледниковый период: Столкновение неизбежно / Ice Age: Collision Course (Майк Тёрмайер, Гален Т. Чу) [2016, Мультфильм, полнометражный, комедия, приключения, семейный, HDRip] iTunes

Ответить на тему
 
Автор Сообщение

L

Пол: Пол:Муж

Стаж: 7 лет 5 месяцев

Сообщений: 11815

Украина
Рейтинг

post 30-Сен-2016 22:49 0[+]

[Цитировать] 

Ледниковый период: Столкновение неизбежно/ Ice Age: Collision Course

Год выпуска: 2016
Жанр: Мультфильм, полнометражный, комедия, приключения, семейный
Выпущено: США, 20th Century Fox Animation, Blue Sky Studios
Продолжительность: 01:34:32
Перевод: Дублированный | iTunes

Режиссер: Майк Тёрмайер, Гален Т. Чу
В ролях: Ник Офферман, Адам Дивайн, Саймон Пегг, Дженнифер Лопез, Мелисса Рауш, Стефани Беатриз, Джон Легуизамо, Макс Гринфилд, Шонн Уильям Скотт, Дэнис Лири
О фильме: Отчаянная погоня за неуловимым желудем катапультирует Скрата прямо в космос, где он случайно запускает целую серию космических событий. Именно они изменят весь мир Ледникового периода и станут реальной угрозой для него. Чтобы спастись, Сид, Мэнни, Диего и остальные звери должны покинуть свои дома, отправиться в забавное и захватывающее приключение в экзотические новые земли и встретиться со множеством красочных новых персонажей.

Качество: HDRip
Формат: AVI
Видео: XviD, 1676 Кбит/с, 720x304, 23,976 кадра/сек
Аудио: Русский (AC3, 6 ch, 384 Кбит/с)
Полное имя : D:\V\LedniKoviy.PerioD.2O16.D.HDRip.14OOMB.avi
Формат : AVI
Формат/Информация : Audio Video Interleave
Размер файла : 1,37 Гбайт
Продолжительность : 1 ч. 34 м.
Общий поток : 2070 Кбит/сек
Программа кодирования : VirtualDubMod 1.5.10.2 (build 2540/release)
Библиотека кодирования : VirtualDubMod build 2540/release

Видео
Идентификатор : 0
Формат : MPEG-4 Visual
Профиль формата : Advanced Simple@L5
Параметр BVOP формата : 2
Параметр QPel формата : Нет
Параметр GMC формата : Без точки перехода
Параметр матрицы формата : Default (MPEG)
Идентификатор кодека : XVID
Идентификатор кодека/Подсказка : XviD
Продолжительность : 1 ч. 34 м.
Битрейт : 1677 Кбит/сек
Ширина : 720 пикселей
Высота : 304 пикселя
Соотношение сторон : 2,35:1
Частота кадров : 23,976 (24000/1001) кадра/сек
Цветовое пространство : YUV
Субдискретизация насыщенности : 4:2:0
Битовая глубина : 8 бит
Тип развёртки : Прогрессивная
Метод сжатия : С потерями
Бит/(Пиксели*Кадры) : 0.320
Размер потока : 1,11 Гбайт (81%)
Библиотека кодирования : XviD 1.2.1 (UTC 2008-12-04)

Аудио
Идентификатор : 1
Формат : AC-3
Формат/Информация : Audio Coding 3
Расширение режима : CM (complete main)
Параметр Endianness формата : Big
Идентификатор кодека : 2000
Продолжительность : 1 ч. 34 м.
Вид битрейта : Постоянный
Битрейт : 384 Кбит/сек
Каналы : 6 каналов
Расположение каналов : Front: L C R, Side: L R, LFE
Частота : 48,0 КГц
Частота кадров : 31,250 кадров/сек (1536 spf)
Метод сжатия : С потерями
Размер потока : 260 Мбайт (19%)
Выравнивание : Разделение по промежуткам
Продолжительность промежутка : 42 мс. (1,00 видеокадр)
Время предзагрузки промежутка : 500 мс.
info [Профиль]  [ЛС] 

dimanwave

Стаж: 4 года 7 месяцев

Сообщений: 271

Рейтинг

post 01-Окт-2016 14:33 (спустя 15 часов) [-]2[+]

[Цитировать] 

720x304 4k ultra hd xD
info [Профиль]  [ЛС] 

RST_

Пол: Пол:Муж

Стаж: 5 лет 11 месяцев

Сообщений: 256

Россия
Рейтинг

post 01-Окт-2016 15:00 (спустя 26 минут) [-]4[+]

[Цитировать] 

Да, забавно постер подобрали.
info [Профиль]  [ЛС] 

Thebestnick

Пол: Пол:Муж

Стаж: 8 лет 5 месяцев

Сообщений: 316

Россия
Рейтинг

post 03-Окт-2016 12:21 (спустя 1 день 21 час) [-]1[+]

[Цитировать] 

самая скучная часть, возможно детям понравится

_________________
— Извините, я опоздал.
— Что случилось?
— Да ничего, я просто не хотел приходить.
info [Профиль]  [ЛС] 
Показать сообщения:    
Ответить на тему

Текущее время: 24-Сен 05:35

Часовой пояс: GMT + 4



Вы не можете начинать темы
Вы не можете отвечать на сообщения
Вы не можете редактировать свои сообщения
Вы не можете удалять свои сообщения
Вы не можете голосовать в опросах
Вы не можете прикреплять файлы к сообщениям
Вы не можете скачивать файлы