Ошибка

Хоббит: Трилогия / The Hobbit: Trilogy [Extended Edition] (Питер Джексон) [2012-2014, Фэнтези, Приключения, BDRemux 1080p]

Ответить на тему
 
Автор Сообщение

Mr West

Пол: Пол:Муж

Стаж: 2 года 1 месяц

Сообщений: 165

Россия
Рейтинг

post 23-Сен-2016 16:30 9[+]

[Цитировать] 

Хоббит [Расширенная Версия] / The Hobbit [Extended Edition] [Трилогия]


Хоббит: Нежданное путешествие / The Hobbit: An Unexpected Journey (2012)
«From the smallest beginnings come the greatest legends»

Год выпуска 2012
Страна Новая Зеландия, США / New Line Cinema, Metro-Goldwyn-Mayer (MGM)
Жанр Фэнтези, Приключения
Продолжительность 03:02:31
Перевод 1 Профессиональный Дублированный
Перевод 2 Одноголосый закадровый
Cубтитры Вшитые, отключаемые
Язык субтитров: Русские, английские
Режиссер Питер Джексон


В ролях Мартин Фриман, Иэн МакКеллен, Ричард Армитидж, Джеймс Несбитт, Кен Стотт, Грэм МакТавиш, Уильям Кирчер, Стивен Хантер, Дин О’Горман, Эйдан Тернер, Джон Коллен, Питер Хэмблтон, Джед Брофи, Энди Серкис, Кейт Бланшетт
Описание Фильм повествует о путешествии Бильбо Бэггинса, который пускается в грандиозный поход, целью которого является отвоевание утраченного королевства гномов Эребор у зловещего дракона Смога. Совершенно неожиданно с хоббитом налаживает контакт волшебник Гэндальф Серый. Так Бильбо находит себя, присоединяясь к компании тринадцати гномов, возглавляемых легендарным воином, Торином Дубощитом. Их путешествие проляжет через Дикий Край, через предательские земли, населенные гоблинами и орками, смертоносными варгами и гигантскими пауками, народом, меняющим шкуры, и волшебниками.
И хотя их цель находится на Востоке среди пустошей Одинокой Горы, сначала им придется выбраться из туннелей гоблинов, где Бильбо встретит существо, которое изменит его жизнь навсегда… Голлума.
Здесь, один на один с Голлумом, на берегу подземного озера, непритязательный Бильбо Бэггинс обнаружит не только скрытые в глубине души хитрость и отвагу, которые удивят даже его, но и завладеет «прелестным» колечком Голлума, которое обладает нежданными и полезными свойствами… Простое золотое кольцо, c которым связана судьба всего Средиземья, нитями, о которых Бильбо не мог даже вообразить.




Качество BDRemux (1080p)
Формат MKV
Видео кодек AVC/H.264
Аудио кодек AC3/DTS
Видео MPEG-4 AVC/H.264, 1920 x 1080, ~ 20800 kbps
Аудио1 : Русский AC3 5.1, 384 kbps, 48 kHz, DN -4dB (DUB)
Аудио2 : Русский DTS 5.1, 1509 kbps, 48 kHz (AVO, Ю.Сербин)
Аудио3 : Русский DTS 5.1, 1509 kbps, 48 kHz (AVO, В.Горчаков)
Аудио4 : Английский DTS-HD MA 7.1, 5339 kbps, 48 kHz (Original)

Код:

Общее
Полное имя                               : E:\FILMS\The Hobbit [3 films]\2012 - The Hobbit An Unexpected Journey [Extended Cut 1080p Eng Rus].mkv
Формат                                   : Matroska
Версия формата                           : Version 4 / Version 2
Размер файла                             : 37,7 Гбайт
Продолжительность                        : 3 ч. 2 м.
Режим общего битрейта                    : Переменный
Общий поток                              : 29,6 Мбит/сек
Название фильма                          : Хоббит: Нежданное путешествие / The Hobbit: An Unexpected Journey (2012 Extended) BDRemux
Дата кодирования                         : UTC 2015-11-16 02:41:27
Программа кодирования                    : mkvmerge v8.3.0 ('Over the Horizon') 64bit
Библиотека кодирования                   : libebml v1.3.1 + libmatroska v1.4.2
DURATION                                 : 03:01:22.871000000
NUMBER_OF_FRAMES                         : 2476
NUMBER_OF_BYTES                          : 68205
_STATISTICS_WRITING_APP                  : mkvmerge v8.3.0 ('Over the Horizon') 64bit
_STATISTICS_WRITING_DATE_UTC             : 2015-11-16 02:41:27
_STATISTICS_TAGS                         : BPS DURATION NUMBER_OF_FRAMES NUMBER_OF_BYTES

Видео
Идентификатор                            : 1
Формат                                   : AVC
Формат/Информация                        : Advanced Video Codec
Профиль формата                          : High@L4.1
Параметр CABAC формата                   : Да
Параметр ReFrames формата                : 2 кадра
Идентификатор кодека                     : V_MPEG4/ISO/AVC
Продолжительность                        : 3 ч. 2 м.
Вид битрейта                             : Переменный
Ширина                                   : 1920 пикселей
Высота                                   : 1080 пикселей
Соотношение сторон                       : 16:9
Режим частоты кадров                     : Постоянный
Частота кадров                           : 23,976 кадра/сек
Цветовое пространство                    : YUV
Субдискретизация насыщенности            : 4:2:0
Битовая глубина                          : 8 бит
Тип развёртки                            : Прогрессивная
Заголовок                                : Хоббит: Нежданное путешествие / The Hobbit: An Unexpected Journey (2012 Extended) BDRemux
Язык                                     : English
Default                                  : Да
Forced                                   : Да

Аудио #1
Идентификатор                            : 2
Формат                                   : AC-3
Формат/Информация                        : Audio Coding 3
Расширение режима                        : CM (complete main)
Параметр Endianness формата              : Big
Идентификатор кодека                     : A_AC3
Продолжительность                        : 3 ч. 2 м.
Вид битрейта                             : Постоянный
Битрейт                                  : 384 Кбит/сек
Каналы                                   : 6 каналов
Расположение каналов                     : Front: L C R, Side: L R, LFE
Частота                                  : 48,0 КГц
Битовая глубина                          : 16 бит
Метод сжатия                             : С потерями
Размер потока                            : 501 Мбайт (1%)
Заголовок                                : AC3 5.1, 384 kbps, 48 kHz, DN -4dB (DUB)
Язык                                     : Russian
Default                                  : Да
Forced                                   : Нет

Аудио #2
Идентификатор                            : 3
Формат                                   : DTS
Формат/Информация                        : Digital Theater Systems
Режим                                    : 16
Параметр Endianness формата              : Big
Идентификатор кодека                     : A_DTS
Продолжительность                        : 3 ч. 2 м.
Вид битрейта                             : Постоянный
Битрейт                                  : 1509 Кбит/сек
Каналы                                   : 6 каналов
Расположение каналов                     : Front: L C R, Side: L R, LFE
Частота                                  : 48,0 КГц
Битовая глубина                          : 24 бит
Метод сжатия                             : С потерями
Размер потока                            : 1,92 Гбайт (5%)
Заголовок                                : DTS 5.1, 1509 kbps, 48 kHz (AVO, Ю.Сербин)
Язык                                     : Russian
Default                                  : Нет
Forced                                   : Нет

Аудио #3
Идентификатор                            : 4
Формат                                   : DTS
Формат/Информация                        : Digital Theater Systems
Режим                                    : 16
Параметр Endianness формата              : Big
Идентификатор кодека                     : A_DTS
Продолжительность                        : 3 ч. 2 м.
Вид битрейта                             : Постоянный
Битрейт                                  : 1509 Кбит/сек
Каналы                                   : 6 каналов
Расположение каналов                     : Front: L C R, Side: L R, LFE
Частота                                  : 48,0 КГц
Битовая глубина                          : 16 бит
Метод сжатия                             : С потерями
Размер потока                            : 1,92 Гбайт (5%)
Заголовок                                : DTS 5.1, 1509 kbps, 48 kHz (AVO, В.Горчаков)
Язык                                     : Russian
Default                                  : Нет
Forced                                   : Нет

Аудио #4
Идентификатор                            : 5
Формат                                   : DTS
Формат/Информация                        : Digital Theater Systems
Профиль формата                          : MA / Core
Режим                                    : 16
Параметр Endianness формата              : Big
Идентификатор кодека                     : A_DTS
Продолжительность                        : 3 ч. 2 м.
Вид битрейта                             : Переменный
Битрейт                                  : Неизвестно / 1509 Кбит/сек
Каналы                                   : 8 каналов / 6 каналов
Расположение каналов                     : Front: L C R, Side: L R, Back: L R, LFE / Front: L C R, Side: L R, LFE
Частота                                  : 48,0 КГц
Битовая глубина                          : 24 бит
Метод сжатия                             : Без потерь / Lossy
Заголовок                                : DTS-HD MA 7.1, 5339 kbps, 48 kHz (Original)
Язык                                     : English
Default                                  : Нет
Forced                                   : Нет

Текст #1
Идентификатор                            : 6
Формат                                   : UTF-8
Идентификатор кодека                     : S_TEXT/UTF8
Идентификатор кодека/Информация          : UTF-8 Plain Text
Заголовок                                : Forced
Язык                                     : Russian
Default                                  : Да
Forced                                   : Да

Текст #2
Идентификатор                            : 7
Формат                                   : UTF-8
Идентификатор кодека                     : S_TEXT/UTF8
Идентификатор кодека/Информация          : UTF-8 Plain Text
Заголовок                                : Full
Язык                                     : Russian
Default                                  : Нет
Forced                                   : Нет

Текст #3
Идентификатор                            : 8
Формат                                   : UTF-8
Идентификатор кодека                     : S_TEXT/UTF8
Идентификатор кодека/Информация          : UTF-8 Plain Text
Заголовок                                : Full
Язык                                     : English
Default                                  : Нет
Forced                                   : Нет

Текст #4
Идентификатор                            : 9
Формат                                   : UTF-8
Идентификатор кодека                     : S_TEXT/UTF8
Идентификатор кодека/Информация          : UTF-8 Plain Text
Заголовок                                : SDH
Язык                                     : English
Default                                  : Нет
Forced                                   : Нет

Меню
00:00:00.000                             : en:Prologue: The Fall of Erebor
00:10:11.903                             : en:"In a Hole in the Ground There Lived a Hobbit"
00:14:08.723                             : en:Very Old Friends
00:17:27.255                             : en:Mr. Baggins
00:18:44.623                             : en:An Unexpected Party
00:23:16.604                             : en:"Blunt the Knives"
00:27:59.469                             : en:A Map, A Key and A Contract
00:36:04.871                             : en:"Misty Mountains"
00:41:17.266                             : en:"...The World Ahead"
00:46:30.830                             : en:The Battle of Azanulbizar
00:53:04.181                             : en:Radagast the Brown
00:58:07.651                             : en:Trollshaws
00:59:55.300                             : en:Roast Mutton
01:10:42.405                             : en:A Troll-hoard
01:15:01.831                             : en:The Hill of Sorcery
01:18:52.811                             : en:Warg-scouts
01:24:56.925                             : en:Rivendell
01:30:34.429                             : en:A Short Rest
01:34:10.603                             : en:Moon Runes
01:37:24.464                             : en:The Defiler
01:39:03.479                             : en:The Last Homely House
01:41:40.803                             : en:The White Council
01:50:22.533                             : en:"Why the Halfling?"
01:52:59.773                             : en:Over Hill
01:59:06.348                             : en:Under Hill
02:03:57.513                             : en:The Great Goblin
02:09:51.575                             : en:Riddles in the Dark
02:23:21.426                             : en:Biter and Beater
02:25:18.877                             : en:The Ring
02:26:31.199                             : en:Escape from Goblin Town
02:30:52.919                             : en:The Pity of Bilbo
02:33:00.546                             : en:"Home is Behind..."
02:35:52.593                             : en:Out of the Frying Pan...
02:46:51.210                             : en:A Good Omen
02:52:21.373                             : en:Credits
Хоббит: Пустошь Смауга / The Hobbit: The Desolation of Smaug (2013)
«Beyond darkness... beyond desolation... lies the greatest danger of all»

Год выпуска 2013
Страна Новая Зеландия, США / New Line Cinema, Metro-Goldwyn-Mayer (MGM)
Жанр Фэнтези, Приключения
Продолжительность 03:06:32
Перевод Профессиональный Дублированный
Cубтитры Вшитые, отключаемые
Язык субтитров: Русские, английские, украинские
Режиссер Питер Джексон


В ролях Мартин Фриман, Иэн МакКеллен, Ричард Армитедж, Джеймс Несбитт, Кен Стотт, Грэм МакТавиш, Уильям Кирчер, Стивен Хантер, Дин О Горман, Эйдан Тернер
Описание Фильм «Хоббит: Пустошь Смауга» - продолжение экранизации цикла романов Толкиена. Все происходящее в трилогии – события из истории Средиземья. До событий, описанных в романе «Властелин Колец», еще предстоит пройти шести десятилетиям. В фильме мы вновь встретимся с добрым хоббитом по имени Бильбо Бэггинс. Он будет странствовать с Гэндальфом Серым, великим магом, Торином Дубощитом и его отрядом в тринадцать отважных гномов. Эта пестрая компания собирается восстановить справедливость – добиться возвращения гномам Эребора, их королевства, захваченного противником, и Одинокой Горы. Первый этап путешествия в фильме будет очень сложным и тяжелым. Но, несмотря на все сложности, герои продолжают двигаться на восток. Лес Мирквуд считается очень нехорошим, зловещим местом. Там герои переживут столкновение с целой стаей пауков-гигиантов и даже оборотнем, которого зовут Беорн. Им удастся ускользнуть от Лесных эльфов, но шанс погибнуть на Одинокой горе всё-таки остаётся весьма высоким. Ведь именно там будет поджидать путешественников Смауг, настоящий дракон. Эта встреча станет последней (в этом фильме) проверкой для героев. Они смогут понять - верным ли был их выбор в начале пути и не были ли жертвы напрасными.




Качество BDRemux (1080p)
Формат MKV
Видео кодек AVC/H.264
Аудио кодек AC3/DTS
Видео MPEG-4 AVC/H.264, 1920 x 1080, ~ 20800 kbps
Аудио1 : Русский AC3 5.1, 448 kbps, 48 kHz (Дубляж, Blu-Ray 3D CEE)
Аудио2 : Английский DTS-HD MA 7.1, 4839 kbps, 48 kHz (Original)

Код:

Общее
Полное имя                               : E:\FILMS\The Hobbit [3 films]\2013 - The Hobbit The Desolation of Smaug [Extended Cut 1080p Eng Rus].mkv
Формат                                   : Matroska
Версия формата                           : Version 4 / Version 2
Размер файла                             : 34,1 Гбайт
Продолжительность                        : 3 ч. 6 м.
Режим общего битрейта                    : Переменный
Общий поток                              : 26,2 Мбит/сек
Название фильма                          : Хоббит: Пустошь Смауга / The Hobbit: The Desolation of Smaug (2013 Extended) BDRemux
Дата кодирования                         : UTC 2015-11-16 03:24:39
Программа кодирования                    : mkvmerge v8.3.0 ('Over the Horizon') 64bit
Библиотека кодирования                   : libebml v1.3.1 + libmatroska v1.4.2
DURATION                                 : 02:54:57.127000000
NUMBER_OF_FRAMES                         : 2287
NUMBER_OF_BYTES                          : 56059
_STATISTICS_WRITING_APP                  : mkvmerge v8.3.0 ('Over the Horizon') 64bit
_STATISTICS_WRITING_DATE_UTC             : 2015-11-16 03:24:39
_STATISTICS_TAGS                         : BPS DURATION NUMBER_OF_FRAMES NUMBER_OF_BYTES

Видео
Идентификатор                            : 1
Формат                                   : AVC
Формат/Информация                        : Advanced Video Codec
Профиль формата                          : High@L4.1
Параметр CABAC формата                   : Да
Параметр ReFrames формата                : 2 кадра
Идентификатор кодека                     : V_MPEG4/ISO/AVC
Продолжительность                        : 3 ч. 6 м.
Вид битрейта                             : Переменный
Ширина                                   : 1920 пикселей
Высота                                   : 1080 пикселей
Соотношение сторон                       : 16:9
Режим частоты кадров                     : Постоянный
Частота кадров                           : 23,976 кадра/сек
Цветовое пространство                    : YUV
Субдискретизация насыщенности            : 4:2:0
Битовая глубина                          : 8 бит
Тип развёртки                            : Прогрессивная
Заголовок                                : Хоббит: Пустошь Смауга / The Hobbit: The Desolation of Smaug (2013 Extended) BDRemux
Язык                                     : English
Default                                  : Да
Forced                                   : Да

Аудио #1
Идентификатор                            : 2
Формат                                   : AC-3
Формат/Информация                        : Audio Coding 3
Расширение режима                        : CM (complete main)
Параметр Endianness формата              : Big
Идентификатор кодека                     : A_AC3
Продолжительность                        : 3 ч. 6 м.
Вид битрейта                             : Постоянный
Битрейт                                  : 448 Кбит/сек
Каналы                                   : 6 каналов
Расположение каналов                     : Front: L C R, Side: L R, LFE
Частота                                  : 48,0 КГц
Битовая глубина                          : 16 бит
Метод сжатия                             : С потерями
Размер потока                            : 598 Мбайт (2%)
Заголовок                                : AC3 5.1, 448 kbps, 48 kHz (Дубляж, Blu-Ray 3D CEE)
Язык                                     : Russian
Default                                  : Да
Forced                                   : Да

Аудио #2
Идентификатор                            : 3
Формат                                   : DTS
Формат/Информация                        : Digital Theater Systems
Профиль формата                          : MA / Core
Режим                                    : 16
Параметр Endianness формата              : Big
Идентификатор кодека                     : A_DTS
Продолжительность                        : 3 ч. 6 м.
Вид битрейта                             : Переменный
Битрейт                                  : Неизвестно / 1509 Кбит/сек
Каналы                                   : 8 каналов / 6 каналов
Расположение каналов                     : Front: L C R, Side: L R, Back: L R, LFE / Front: L C R, Side: L R, LFE
Частота                                  : 48,0 КГц
Битовая глубина                          : 24 бит
Метод сжатия                             : Без потерь / Lossy
Заголовок                                : DTS-HD MA 7.1, 4839 kbps, 48 kHz (Original)
Язык                                     : English
Default                                  : Нет
Forced                                   : Нет

Текст #1
Идентификатор                            : 4
Формат                                   : UTF-8
Идентификатор кодека                     : S_TEXT/UTF8
Идентификатор кодека/Информация          : UTF-8 Plain Text
Заголовок                                : Forced
Язык                                     : Russian
Default                                  : Да
Forced                                   : Да

Текст #2
Идентификатор                            : 5
Формат                                   : UTF-8
Идентификатор кодека                     : S_TEXT/UTF8
Идентификатор кодека/Информация          : UTF-8 Plain Text
Заголовок                                : Full
Язык                                     : Russian
Default                                  : Нет
Forced                                   : Нет

Текст #3
Идентификатор                            : 6
Формат                                   : UTF-8
Идентификатор кодека                     : S_TEXT/UTF8
Идентификатор кодека/Информация          : UTF-8 Plain Text
Заголовок                                : Full
Язык                                     : Ukrainian
Default                                  : Нет
Forced                                   : Нет

Текст #4
Идентификатор                            : 7
Формат                                   : UTF-8
Идентификатор кодека                     : S_TEXT/UTF8
Идентификатор кодека/Информация          : UTF-8 Plain Text
Заголовок                                : Full
Язык                                     : English
Default                                  : Нет
Forced                                   : Нет

Текст #5
Идентификатор                            : 8
Формат                                   : UTF-8
Идентификатор кодека                     : S_TEXT/UTF8
Идентификатор кодека/Информация          : UTF-8 Plain Text
Заголовок                                : SDH
Язык                                     : English
Default                                  : Нет
Forced                                   : Нет

Меню
00:00:00.000                             : en:00:00:00.000
00:07:33.411                             : en:00:07:33.411
00:12:00.303                             : en:00:12:00.303
00:12:59.445                             : en:00:12:59.445
00:15:55.371                             : en:00:15:55.371
00:20:56.922                             : en:00:20:56.922
00:23:15.436                             : en:00:23:15.436
00:25:52.676                             : en:00:25:52.676
00:29:59.256                             : en:00:29:59.256
00:38:14.042                             : en:00:38:14.042
00:46:43.843                             : en:00:46:43.843
00:49:46.317                             : en:00:49:46.317
00:53:19.530                             : en:00:53:19.530
00:55:10.224                             : en:00:55:10.224
00:58:07.859                             : en:00:58:07.859
01:08:42.327                             : en:01:08:42.327
01:12:22.338                             : en:01:12:22.338
01:15:45.708                             : en:01:15:45.708
01:19:10.162                             : en:01:19:10.162
01:22:46.837                             : en:01:22:46.837
01:25:09.688                             : en:01:25:09.688
01:28:07.741                             : en:01:28:07.741
01:31:15.553                             : en:01:31:15.553
01:36:02.757                             : en:01:36:02.757
01:37:35.892                             : en:01:37:35.892
01:40:35.404                             : en:01:40:35.404
01:45:16.519                             : en:01:45:16.519
01:48:44.476                             : en:01:48:44.476
01:50:31.750                             : en:01:50:31.750
01:52:36.541                             : en:01:52:36.541
01:53:08.448                             : en:01:53:08.448
01:59:16.358                             : en:01:59:16.358
02:07:11.833                             : en:02:07:11.833
02:07:39.110                             : en:02:07:39.110
02:09:22.672                             : en:02:09:22.672
02:12:48.586                             : en:02:12:48.586
02:22:00.846                             : en:02:22:00.846
02:22:43.430                             : en:02:22:43.430
02:23:17.923                             : en:02:23:17.923
02:24:56.396                             : en:02:24:56.396
02:26:45.088                             : en:02:26:45.088
02:29:18.825                             : en:02:29:18.825
02:33:12.975                             : en:02:33:12.975
02:34:57.622                             : en:02:34:57.622
02:36:13.155                             : en:02:36:13.155
02:37:45.956                             : en:02:37:45.956
02:39:08.831                             : en:02:39:08.831
02:41:39.940                             : en:02:41:39.940
02:44:06.003                             : en:02:44:06.003
02:51:16.683                             : en:02:51:16.683
02:56:05.555                             : en:02:56:05.555
Хоббит: Битва пяти воинств / The Hobbit: The Battle of the Five Armies (2014)
«Последнее путешествие в Средиземье»

Год выпуска 2014
Страна Новая Зеландия, США / New Line Cinema, Metro-Goldwyn-Mayer (MGM)
Жанр Фэнтези, Приключения
Продолжительность 02:44:02
Перевод Профессиональный Дублированный
Cубтитры Вшитые, отключаемые
Язык субтитров: Русские, английские, украинские
Режиссер Питер Джексон


В ролях Мартин Фриман, Иэн МакКеллен, Ричард Армитедж, Люк Эванс, Эванджелин Лилли, Ли Пейс, Орландо Блум, Бенедикт Камбербэтч, Кен Стотт, Эйдан Тернер

Описание Когда отряд из тринадцати гномов нанимал хоббита Бильбо Бэгинса в качестве взломщика и четырнадцатого, «счастливого», участника похода к Одинокой горе, Бильбо полагал, что его приключения закончатся, когда он выполнит свою задачу - найдет сокровище, которое так необходимо предводителю гномов Торину. Путешествие в Эребор, захваченное драконом Смаугом королевство гномов, оказалось еще более опасным, чем предполагали гномы и даже Гэндальф - мудрый волшебник, протянувший Торину и его отряду руку помощи.В погоню за гномами устремилась армия орков, ведомых пробудившимся в руинах древним злом, а эльфы и люди, с которыми Бильбо и его товарищам пришлось иметь дело во время путешествия и которые пострадали от последствий желания гномов вернуть свой дом, предъявили права на щедрое вознаграждение - часть сокровищ Одинокой горы. Скоро неподалеку от Одинокой горы встретятся пять армий, и лишь кровопролитная битва определит результаты смелого гномьего похода.




Качество BDRemux (1080p)
Формат MKV
Видео кодек AVC/H.264
Аудио кодек AC3/DTS
Видео MPEG-4 AVC/H.264, 1920 x 1080, ~ 21800 kbps
Аудио1 : Русский АС3, 6 ch, 384 kbps, 48 000 Hz - Дубляж
Аудио2 : Английский DTS-HD MA, 8 ch, 4764 kbps, 48 000 Hz - Оригинал

Код:

Общее
Полное имя                               : E:\FILMS\The Hobbit [3 films]\2014 - The Hobit The Battle of The Five Armies [Extended Cut 1080p Eng Rus].mkv
Формат                                   : Matroska
Версия формата                           : Version 4 / Version 2
Размер файла                             : 30,9 Гбайт
Продолжительность                        : 2 ч. 44 м.
Режим общего битрейта                    : Переменный
Общий поток                              : 27,0 Мбит/сек
Название фильма                          : Хоббит: Битва пяти воинств / The Hobbit: The Battle of the Five Armies (2014 Extended) BDRemux
Дата кодирования                         : UTC 2015-11-16 02:26:11
Программа кодирования                    : mkvmerge v8.3.0 ('Over the Horizon') 64bit
Библиотека кодирования                   : libebml v1.3.1 + libmatroska v1.4.2
DURATION                                 : 02:29:38.176000000
NUMBER_OF_FRAMES                         : 1462
NUMBER_OF_BYTES                          : 33627
_STATISTICS_WRITING_APP                  : mkvmerge v8.3.0 ('Over the Horizon') 64bit
_STATISTICS_WRITING_DATE_UTC             : 2015-11-16 02:26:11
_STATISTICS_TAGS                         : BPS DURATION NUMBER_OF_FRAMES NUMBER_OF_BYTES

Видео
Идентификатор                            : 1
Формат                                   : AVC
Формат/Информация                        : Advanced Video Codec
Профиль формата                          : High@L4.1
Параметр CABAC формата                   : Да
Параметр ReFrames формата                : 2 кадра
Идентификатор кодека                     : V_MPEG4/ISO/AVC
Продолжительность                        : 2 ч. 44 м.
Вид битрейта                             : Переменный
Ширина                                   : 1920 пикселей
Высота                                   : 1080 пикселей
Соотношение сторон                       : 16:9
Режим частоты кадров                     : Постоянный
Частота кадров                           : 23,976 кадра/сек
Цветовое пространство                    : YUV
Субдискретизация насыщенности            : 4:2:0
Битовая глубина                          : 8 бит
Тип развёртки                            : Прогрессивная
Заголовок                                : Хоббит: Битва пяти воинств / The Hobbit: The Battle of the Five Armies (2014 Extended) BDRemux
Язык                                     : English
Default                                  : Да
Forced                                   : Нет

Аудио #1
Идентификатор                            : 2
Формат                                   : AC-3
Формат/Информация                        : Audio Coding 3
Расширение режима                        : CM (complete main)
Параметр Endianness формата              : Big
Идентификатор кодека                     : A_AC3
Продолжительность                        : 2 ч. 44 м.
Вид битрейта                             : Постоянный
Битрейт                                  : 384 Кбит/сек
Каналы                                   : 6 каналов
Расположение каналов                     : Front: L C R, Side: L R, LFE
Частота                                  : 48,0 КГц
Битовая глубина                          : 16 бит
Метод сжатия                             : С потерями
Размер потока                            : 451 Мбайт (1%)
Заголовок                                : АС3, 6 ch, 384 kbps, 48 000 Hz - Русский
Язык                                     : Russian
Default                                  : Да
Forced                                   : Да

Аудио #2
Идентификатор                            : 3
Формат                                   : DTS
Формат/Информация                        : Digital Theater Systems
Профиль формата                          : MA / Core
Режим                                    : 16
Параметр Endianness формата              : Big
Идентификатор кодека                     : A_DTS
Продолжительность                        : 2 ч. 44 м.
Вид битрейта                             : Переменный
Битрейт                                  : Неизвестно / 1509 Кбит/сек
Каналы                                   : 8 каналов / 6 каналов
Расположение каналов                     : Front: L C R, Side: L R, Back: L R, LFE / Front: L C R, Side: L R, LFE
Частота                                  : 48,0 КГц
Битовая глубина                          : 24 бит
Метод сжатия                             : Без потерь / Lossy
Заголовок                                : DTS-HD MA, 8 ch, 4764 kbps, 48 000 Hz - Английский
Язык                                     : English
Default                                  : Нет
Forced                                   : Нет

Текст #1
Идентификатор                            : 4
Формат                                   : UTF-8
Идентификатор кодека                     : S_TEXT/UTF8
Идентификатор кодека/Информация          : UTF-8 Plain Text
Заголовок                                : Forced
Язык                                     : Russian
Default                                  : Нет
Forced                                   : Нет

Текст #2
Идентификатор                            : 5
Формат                                   : UTF-8
Идентификатор кодека                     : S_TEXT/UTF8
Идентификатор кодека/Информация          : UTF-8 Plain Text
Заголовок                                : Full
Язык                                     : Russian
Default                                  : Нет
Forced                                   : Нет

Текст #3
Идентификатор                            : 6
Формат                                   : UTF-8
Идентификатор кодека                     : S_TEXT/UTF8
Идентификатор кодека/Информация          : UTF-8 Plain Text
Заголовок                                : Full
Язык                                     : Ukrainian
Default                                  : Нет
Forced                                   : Нет

Текст #4
Идентификатор                            : 7
Формат                                   : UTF-8
Идентификатор кодека                     : S_TEXT/UTF8
Идентификатор кодека/Информация          : UTF-8 Plain Text
Заголовок                                : Full
Язык                                     : English
Default                                  : Нет
Forced                                   : Нет

Меню
00:00:00.000                             : en:Chapter 1
00:05:12.395                             : en:Chapter 2
00:12:47.057                             : en:Chapter 3
00:13:19.298                             : en:Chapter 4
00:18:57.427                             : en:Chapter 5
00:23:42.170                             : en:Chapter 6
00:24:56.161                             : en:Chapter 7
00:26:04.563                             : en:Chapter 8
00:27:33.026                             : en:Chapter 9
00:35:45.685                             : en:Chapter 10
00:36:41.282                             : en:Chapter 11
00:40:41.897                             : en:Chapter 12
00:42:01.143                             : en:Chapter 13
00:43:11.755                             : en:Chapter 14
00:46:16.148                             : en:Chapter 15
00:51:27.667                             : en:Chapter 16
00:54:57.961                             : en:Chapter 17
00:56:14.829                             : en:Chapter 18
00:58:31.299                             : en:Chapter 19
01:00:26.956                             : en:Chapter 20
01:02:43.593                             : en:Chapter 21
01:06:10.174                             : en:Chapter 22
01:12:23.297                             : en:Chapter 23
01:17:22.554                             : en:Chapter 24
01:20:36.331                             : en:Chapter 25
01:24:57.217                             : en:Chapter 26
01:28:41.774                             : en:Chapter 27
01:30:52.280                             : en:Chapter 28
01:33:02.159                             : en:Chapter 29
01:35:12.832                             : en:Chapter 30
01:38:32.489                             : en:Chapter 31
01:39:42.893                             : en:Chapter 32
01:41:00.596                             : en:Chapter 33
01:45:03.505                             : en:Chapter 34
01:47:13.635                             : en:Chapter 35
01:49:05.288                             : en:Chapter 36
01:50:03.013                             : en:Chapter 37
01:52:59.606                             : en:Chapter 38
01:53:51.282                             : en:Chapter 39
01:57:15.236                             : en:Chapter 40
02:05:38.572                             : en:Chapter 41
02:12:07.044                             : en:Chapter 42
02:15:26.243                             : en:Chapter 43
02:18:32.512                             : en:Chapter 44
02:20:07.440                             : en:Chapter 45
02:22:27.205                             : en:Chapter 46
02:26:11.596                             : en:Chapter 47
02:30:54.462                             : en:Chapter 48
2012 - Хоббит: Нежданное путешествие (Расширенная Версия):
— 19 различий между версиями, в том числе:
* 4 сцены с альтернативным материалом
* 3 сдвига в монтаже
* 3 сцены, в которых киноверсия длиннее

Разница: 773,5 sec (= 12:54 минуты)
Покадровое сравнение: «Хоббит: Нежданное путешествие» Киноверсия <-> SEE
2013 - Хоббит: Пустошь Смауга (Расширенная Версия):
31 differences, including:
* 6 alternative scenes
* 3 scenes with changes in editing
* 3 digitally edited scenes
* 3 scenes where the theatrical edition is longer

Difference: 1514.5 sec (= 25:15 min)
* Additional material in Extended Edition: 1611.6 sec (= 26:52 min)
* Additional material in Theatrical Edition: 96.9 sec (= 1:37 min)
Покадровое сравнение: «Хоббит: Пустошь Смауга
2014 - Хоббит: Битва пяти воинств (Расширенная Версия):
Длиннее театральной на 20 минут!
info [Профиль]  [ЛС] 

post 23-Сен-2016 16:41 (спустя 11 минут) [-]0[+]

Топик был перенесен из форума Зарубежное кино | HD Rips в форум Зарубежное кино | HD DVD и Blu-ray

Formula
 

bariska72

Пол: Пол:Муж

Стаж: 7 лет 6 месяцев

Сообщений: 364

Россия
Рейтинг

post 23-Сен-2016 19:55 (спустя 3 часа) [-]5[+]

[Цитировать] 

Спасибо за раздачу подержу!!!

_________________
info [Профиль]  [ЛС] 

DARKCAT1989

Стаж: 6 лет 10 месяцев

Сообщений: 263

Россия
Рейтинг

post 23-Сен-2016 20:01 (спустя 6 минут) [-]0[+]

[Цитировать] 

а в 720 p бд рип с такимже материалом есть?
info [Профиль]  [ЛС] 

Mr West

Пол: Пол:Муж

Стаж: 2 года 1 месяц

Сообщений: 165

Россия
Рейтинг

post 23-Сен-2016 21:04 (спустя 1 час 2 минуты) [-]0[+]

[Цитировать] 

DARKCAT1989 писал(а):

а в 720 p бд рип с такимже материалом есть?
только в BDRemux (1080p)

_________________
info [Профиль]  [ЛС] 

SergeyAjax

Пол: Пол:Муж

Стаж: 6 лет 5 месяцев

Сообщений: 135

Кокосовые острова
Рейтинг

post 23-Сен-2016 22:03 (спустя 59 минут) [-]1[+]

[Цитировать] 

Сколько раз уже пересмотрел....эх одним больше, одним меньше) К тому же золото!) Спасибо!)
info [Профиль]  [ЛС] 

Tutatis

Пол: Пол:Муж

Стаж: 5 лет

Сообщений: 10

Россия
Рейтинг

post 24-Сен-2016 01:02 (спустя 2 часа 59 минут) [-]2[+]

[Цитировать] 

Такие раздачи просто подарок для накачки рейтинга. Улыбаюсь А вообще я как раз режиссерской версии не видел, будет интересно посмотреть, главное, чтобы ноутбук не умер от таких файлов. ))

_________________
Побеждать, не уничтожая, повелевать, не унижая — вот, в чем суть завоеваний (с) Райдер (Fate Zero)
info [Профиль]  [ЛС] 

AWolf89

Пол: Пол:Муж

Стаж: 7 лет 2 месяца

Сообщений: 47

Россия
Рейтинг

post 24-Сен-2016 11:14 (спустя 10 часов) [-]0[+]

[Цитировать] 

Спасибо, давно ждал такую раздачу. В коллекцию!
info [Профиль]  [ЛС] 

kirill12k

Пол: Пол:Муж

Стаж: 6 лет 2 месяца

Сообщений: 27

Россия
Рейтинг

post 24-Сен-2016 16:41 (спустя 5 часов) [-]0[+]

[Цитировать] 

скачал бы последний фильм, да чет звук с таким отстойным битрейтом 384 что это? минимум 640 хотя бы, в идеале dts 1500 kb

_________________
info [Профиль]  [ЛС] 

Noumenon

Стаж: 5 лет 5 месяцев

Сообщений: 78

Рейтинг

post 24-Сен-2016 21:17 (спустя 4 часа) [-]0[+]

[Цитировать] 

Сабов бы еще к английской дороге..
info [Профиль]  [ЛС] 

RichardGray

Пол: Пол:Муж

Стаж: 3 года 8 месяцев

Сообщений: 19

Россия
Рейтинг

post 25-Сен-2016 02:00 (спустя 4 часа) [-]0[+]

[Цитировать] 

Был бы очень рад такой же раздаче, но в HEVC
info [Профиль]  [ЛС] 

shokwaves

Пол: Пол:Муж

Стаж: 3 года 1 месяц

Сообщений: 2

Россия
Рейтинг

post 01-Окт-2016 23:51 (спустя 6 дней) [-]0[+]

[Цитировать] 

Извините за тупой вопрос, но где или как определить в раздаче видео, что в видео присутствует сверху и снизу черные полосы ( Вижу видео на раздаче 1920 на 1080. 1080p. почему не скачать?, так как разрешение как у моего телека\монитора совпадает, но видео не в полное разрешение, из-за черных полос). Можно поставить мне много минусов (я не обижусь). можете мне в личку скинуть все по этому вопросу (лучше тыкнуть в лицом, как убрать или обойти эту раздачу или исправить).
info [Профиль]  [ЛС] 
Показать сообщения:    
Ответить на тему

Текущее время: 05-Дек 08:28

Часовой пояс: GMT + 4



Вы не можете начинать темы
Вы не можете отвечать на сообщения
Вы не можете редактировать свои сообщения
Вы не можете удалять свои сообщения
Вы не можете голосовать в опросах
Вы не можете прикреплять файлы к сообщениям
Вы не можете скачивать файлы