Ошибка
Загрузка...

Зверополис / Zootopia (Байрон Ховард, Рич Мур, Джаред Буш) [2016 г., мультфильм, боевик, комедия, криминал, детектив, приключения, семейный, BDRip 720p]

Ответить на тему
 
Автор Сообщение

Eвгений

Пол: Пол:Муж

Стаж: 7 лет 7 месяцев

Сообщений: 733

Россия
Рейтинг

post 13-Авг-2016 01:09 6[+]

[Цитировать] 

Зверополис / Zootopia

Год выпуска: 2016
Страна: США
Жанр: мультфильм, боевик, комедия, криминал, детектив, приключения, семейный
Продолжительность: 01:48:44
Перевод: Профессиональный (полное дублирование) |Blu-ray EUR|
Язык субтитров: Русский (iTunes), Английский (iTunes), Английский, Английский (SDH)
Режиссер:
  • Байрон Ховард, Рич Мур, Джаред Буш

В ролях:
  • Джиннифер Гудвин, Джейсон Бейтман, Идрис Эльба, Дженни Слейт, Нейт Торренс, Бонни Хант, Дон Лейк, Томми Чонг, Дж.К. Симмонс, Октавия Спенсер

Описание: Добро пожаловать в Зверополис – современный город, населенный самыми разными животными, от огромных слонов до крошечных мышек. Зверополис разделен на районы, полностью повторяющие естественную среду обитания разных жителей – здесь есть и элитный район Площадь Сахары и неприветливый Тундратаун. В этом городе появляется новый офицер полиции, жизнерадостная зайчиха Джуди Хоппс, которая с первых дней работы понимает, как сложно быть маленькой и пушистой среди больших и сильных полицейских. Джуди хватается за первую же возможность проявить себя, несмотря на то, что ее партнером будет болтливый хитрый лис Ник Уайлд. Вдвоем им предстоит раскрыть сложное дело, от которого будет зависеть судьба всех обитателей Зверополиса.
| |

РАЗДАЧА ОТ:
Качество: BDRip 720p
Формат: MKV
Видео кодек: AVC
Аудио кодек: AC3, DTS
Видео: 1280x536, 23.976 кадра/сек, 6234 kbps
Aудио#1: Russian: 48 kHz, AC3, 3/2 (L,C,R,l,r) + LFE ch, ~640.00 kbps avg |Дубляж, Blu-ray EUR|
Aудио#2: Ukrainian: 48 kHz, DTS, 3/2 (L,C,R,l,r) + LFE ch, ~1509.00 kbps avg |Дубляж, Disney / Buena Vista|
Aудио#3: English: 48 kHz, DTS, 3/2 (L,C,R,l,r) + LFE ch, ~1509.00 kbps avg
Aудио#4: English: 48 kHz, AC3, 2/0 (L,R) ch, ~320.00 kbps avg |Descriptive|
Общее
Уникальный идентификатор : 222180302536793067115389764609026483712 (0xA7265EA94DA17F7596C12F3339D6E600)
Полное имя : Y:\Blu-Ray\Zootopia.2016.720p.BluRay.DTS.Rus.Ukr.2xEng.HDCLUB.mkv
Формат : Matroska
Версия формата : Version 2
Размер файла : 7,76 Гбайт
Продолжительность : 1 ч. 48 м.
Общий поток : 10,2 Мбит/сек
Название фильма : Zootopia (2016) - Release for HDCLUB
Дата кодирования : UTC 2016-08-12 02:06:46
Программа кодирования : mkvmerge v8.3.0 ('Over the Horizon') 64bit
Библиотека кодирования : libebml v1.3.1 + libmatroska v1.4.2
Attachments : VietHD.log

Видео
Идентификатор : 1
Формат : AVC
Формат/Информация : Advanced Video Codec
Профиль формата : High@L4.1
Параметр CABAC формата : Да
Параметр ReFrames формата : 12 кадров
Идентификатор кодека : V_MPEG4/ISO/AVC
Продолжительность : 1 ч. 48 м.
Битрейт : 6234 Кбит/сек
Ширина : 1280 пикселей
Высота : 536 пикселей
Соотношение сторон : 2,40:1
Режим частоты кадров : Постоянный
Частота кадров : 23,976 (24000/1001) кадра/сек
Цветовое пространство : YUV
Субдискретизация насыщенности : 4:2:0
Битовая глубина : 8 бит
Тип развёртки : Прогрессивная
Бит/(Пиксели*Кадры) : 0.379
Размер потока : 4,74 Гбайт (61%)
Заголовок : Zootopia (2016) - Release for HDCLUB
Библиотека кодирования : x264 core 148 r2705 3f5ed56
Настройки программы : cabac=1 / ref=12 / deblock=1:-3:-3 / analyse=0x3:0x133 / me=umh / subme=11 / psy=1 / psy_rd=1.00:0.00 / mixed_ref=1 / me_range=48 / chroma_me=1 / trellis=2 / 8x8dct=1 / cqm=0 / deadzone=21,11 / fast_pskip=0 / chroma_qp_offset=-2 / threads=17 / lookahead_threads=2 / sliced_threads=0 / nr=0 / decimate=1 / interlaced=0 / bluray_compat=0 / constrained_intra=0 / bframes=8 / b_pyramid=2 / b_adapt=2 / b_bias=0 / direct=1 / weightb=1 / open_gop=0 / weightp=2 / keyint=240 / keyint_min=23 / scenecut=40 / intra_refresh=0 / rc_lookahead=60 / rc=crf / mbtree=0 / crf=14.3 / qcomp=0.60 / qpmin=0 / qpmax=69 / qpstep=4 / vbv_maxrate=50000 / vbv_bufsize=62500 / crf_max=0.0 / nal_hrd=none / filler=0 / ip_ratio=1.35 / pb_ratio=1.25 / aq=1:0.80
Язык : Russian
Default : Да
Forced : Нет

Аудио #1
Идентификатор : 2
Формат : AC-3
Формат/Информация : Audio Coding 3
Расширение режима : CM (complete main)
Параметр Endianness формата : Big
Идентификатор кодека : A_AC3
Продолжительность : 1 ч. 48 м.
Вид битрейта : Постоянный
Битрейт : 640 Кбит/сек
Каналы : 6 каналов
Расположение каналов : Front: L C R, Side: L R, LFE
Частота : 48,0 КГц
Частота кадров : 31,250 кадров/сек (1536 spf)
Метод сжатия : С потерями
Размер потока : 498 Мбайт (6%)
Заголовок : AC3 5.1 @ 640 kbps - DUB, Blu-ray EUR
Язык : Russian
Default : Да
Forced : Нет

Аудио #2
Идентификатор : 3
Формат : DTS
Формат/Информация : Digital Theater Systems
Режим : 16
Параметр Endianness формата : Big
Идентификатор кодека : A_DTS
Продолжительность : 1 ч. 48 м.
Вид битрейта : Постоянный
Битрейт : 1509 Кбит/сек
Каналы : 6 каналов
Расположение каналов : Front: L C R, Side: L R, LFE
Частота : 48,0 КГц
Частота кадров : 93,750 кадра/сек (512 spf)
Битовая глубина : 24 бит
Метод сжатия : С потерями
Размер потока : 1,14 Гбайт (15%)
Заголовок : DTS 5.1 @ 1536 kbps - DUB, Disney / Buena Vista
Язык : Ukrainian
Default : Нет
Forced : Нет

Аудио #3
Идентификатор : 4
Формат : DTS
Формат/Информация : Digital Theater Systems
Режим : 16
Параметр Endianness формата : Big
Идентификатор кодека : A_DTS
Продолжительность : 1 ч. 48 м.
Вид битрейта : Постоянный
Битрейт : 1509 Кбит/сек
Каналы : 6 каналов
Расположение каналов : Front: L C R, Side: L R, LFE
Частота : 48,0 КГц
Частота кадров : 93,750 кадра/сек (512 spf)
Битовая глубина : 24 бит
Метод сжатия : С потерями
Размер потока : 1,15 Гбайт (15%)
Заголовок : DTS 5.1 @ 1536 kbps
Язык : English
Default : Нет
Forced : Нет

Аудио #4
Идентификатор : 5
Формат : AC-3
Формат/Информация : Audio Coding 3
Профиль формата : Dolby Digital
Расширение режима : CM (complete main)
Параметр Endianness формата : Big
Идентификатор кодека : A_AC3
Продолжительность : 1 ч. 48 м.
Вид битрейта : Постоянный
Битрейт : 320 Кбит/сек
Каналы : 2 канала
Расположение каналов : Front: L R
Частота : 48,0 КГц
Частота кадров : 31,250 кадров/сек (1536 spf)
Метод сжатия : С потерями
Размер потока : 249 Мбайт (3%)
Заголовок : AC3 2.0 @ 320 kbps - Descriptive
Язык : English
Default : Нет
Forced : Нет

Текст #1
Идентификатор : 6
Формат : UTF-8
Идентификатор кодека : S_TEXT/UTF8
Идентификатор кодека/Информация : UTF-8 Plain Text
Продолжительность : 1 ч. 38 м.
Битрейт : 122 бит/сек
Count of elements : 1745
Размер потока : 88,6 Кбайт (0%)
Заголовок : iTunes
Язык : Russian
Default : Нет
Forced : Нет

Текст #2
Идентификатор : 7
Формат : UTF-8
Идентификатор кодека : S_TEXT/UTF8
Идентификатор кодека/Информация : UTF-8 Plain Text
Продолжительность : 1 ч. 39 м.
Битрейт : 72 бит/сек
Count of elements : 1712
Размер потока : 52,3 Кбайт (0%)
Заголовок : iTunes
Язык : English
Default : Нет
Forced : Нет

Текст #3
Идентификатор : 8
Формат : UTF-8
Идентификатор кодека : S_TEXT/UTF8
Идентификатор кодека/Информация : UTF-8 Plain Text
Продолжительность : 1 ч. 38 м.
Битрейт : 74 бит/сек
Count of elements : 1700
Размер потока : 54,2 Кбайт (0%)
Язык : English
Default : Нет
Forced : Нет

Текст #4
Идентификатор : 9
Формат : UTF-8
Идентификатор кодека : S_TEXT/UTF8
Идентификатор кодека/Информация : UTF-8 Plain Text
Продолжительность : 1 ч. 45 м.
Битрейт : 83 бит/сек
Count of elements : 2295
Размер потока : 64,8 Кбайт (0%)
Заголовок : SDH
Язык : English
Default : Нет
Forced : Нет

Меню
00:00:00.000 : en:Prologue
00:00:59.559 : en:Gideon Grey
00:05:50.100 : en:The Police Academy
00:10:05.563 : en:Welcome to Zootopia
00:14:31.537 : en:Meter Maid Duty
00:18:24.019 : en:Pawpsicles
00:26:03.353 : en:The Weasel Chase
00:30:57.439 : en:It's Called A Hustle
00:37:07.100 : en:The Naturalist Club
00:40:43.441 : en:Department Of 10
00:44:31.752 : en:Mr. Big
00:51:40.430 : en:Manchas Goes Savage
00:55:40.378 : en:The Gondola
01:00:48.269 : en:Help from Bellwether
01:03:37.855 : en:Cliffside Asylum
01:09:19.822 : en:We Cracked the Case
01:13:39.165 : en:Hopps Gives Up
01:17:07.372 : en:Hopps' Apology
01:21:52.366 : en:Doug's Laboratory
01:28:19.169 : en:The Natural History Museum
01:32:43.433 : en:Epilogue
01:36:12.141 : en:End Credits

Цитата:

Сохранены и подписаны оригинальные главы как на Blu-ray.
Локализованный русский видеоряд.
info [Профиль]  [ЛС] 

youtoome123

Стаж: 7 лет 6 месяцев

Сообщений: 309

Рейтинг

post 13-Авг-2016 15:47 (спустя 14 часов) [-]0[+]

[Цитировать] 

Версии с дополнительными сценами вообще не будет? Только отдельно они?
info [Профиль]  [ЛС] 

TorAdin

Стаж: 8 лет

Сообщений: 649

Рейтинг

post 13-Авг-2016 18:32 (спустя 2 часа 44 минуты) [-]0[+]

[Цитировать] 

с ленивцами сцена просто до слез)))
info [Профиль]  [ЛС] 

erisdiscordia

Пол: Пол:Муж

Стаж: 5 лет

Сообщений: 69

Россия
Рейтинг

post 13-Авг-2016 23:29 (спустя 4 часа) [-]0[+]

[Цитировать] 

как только этот мульт ни называли. и zootopia, и zootopolis, и zoomania...
info [Профиль]  [ЛС] 

Jamato

Пол: Пол:Муж

Стаж: 7 лет 7 месяцев

Сообщений: 808

Украина
Рейтинг

post 14-Авг-2016 17:16 (спустя 17 часов) [-]0[+]

[Цитировать] 

Советую смотреть в оригинале. Официальный перевод не очень.

_________________
Экономлю энергию и деньги на С.С.С.Р.
Сигаретах.Спиртном.Сексе.Радости...(с)闇倭
info [Профиль]  [ЛС] 

lampard960

Пол: Пол:Муж

Стаж: 5 лет 8 месяцев

Сообщений: 672

Ангилья
Рейтинг

post 18-Окт-2016 11:14 (спустя 2 месяца 3 дня) [-]0[+]

[Цитировать] 

фильм отлично высмеивает все современные заморочки общества. мы реально превратились в животных.
info [Профиль]  [ЛС] 

AlexRight

Пол: Пол:Муж

Стаж: 4 года 8 месяцев

Сообщений: 52

Украина
Рейтинг

post 25-Июн-2017 14:34 (спустя 8 месяцев 7 дней) [-]0[+]

[Цитировать] 

lampard960
Не превратились, а вернулись к истокам) По сути мы просто зазнались, что человек - венец эволюции...
info [Профиль]  [ЛС] 
Показать сообщения:    
Ответить на тему

Текущее время: 21-Сен 05:41

Часовой пояс: GMT + 4



Вы не можете начинать темы
Вы не можете отвечать на сообщения
Вы не можете редактировать свои сообщения
Вы не можете удалять свои сообщения
Вы не можете голосовать в опросах
Вы не можете прикреплять файлы к сообщениям
Вы не можете скачивать файлы