Ошибка

Гайвер: Неконтролируемый (Гайвер - Фильм/Гайвер: Вне контроля) / The Guyver: Out of Control (Kyoushoku Soukou Guyver) (Ватанабэ Хироси) [Movie] [Без хардсаба] [1986 г., приключения, фантастика, ужасы, DVDRip] [HWP] [Любительский, RUS(int),JAP]

Ответить на тему
 
Автор Сообщение

GaRI61

Пол: Пол:Муж

Стаж: 2 года

Сообщений: 221

Россия
Рейтинг

post 08-Авг-2016 18:36 2[+]

[Цитировать] 

Guyver: Out of Control

Страна: Япония.
Год выпуска: 1986 г.
Жанр: приключения, фантастика, меха, ужасы.
Тип: OVA, короткометражный фильм.
Продолжительность: 0:53:15.
Премьера: 13.12.1986.
Перевод:
*1. Многоголосая любительская AlSoDi project.
*2. Японская оригинальная дорожка.
Русские субтитры: нет.
Режиссёр: Ватанабэ Хироси.
Снято по манге: Kyoushoku Soukou Guyver (1985).
Автор оригинала: Такая Ёсики.
Описание:

Гайвер: Вне контроля (Guyver: Out of Control) — полнометражное аниме, основанное на манге Гайвер: Био-Усиливающая Броня ( «The Guyver: Bio-Booster Armour»), хотя и несколько отличающейся от неё. Аниме было снято в Японии в 1986 году, а в США и Канаде релиз состоялся в 1993 году.

Возвращаясь домой, ученики Сё Фукамати («Shō Fukamachi») и Мицуки Сигава («Mizuki Segawa») случайно нашли один из трех блоков гайверов («Bio Booster Armor»), которые были украдены у корпорации Кронос. Блок гайвера случайно активировался с Сё, превратив его в гайвера, с помощью которого Сё жестоко убил заставших его и Мицуки, за кражей блока, Зоаноидов, а одному из Зоаноидов Сё оторвал руки, сломал рог и оторвал голову. Тем временем девушка, работающая в корпорации Кронос, детектив Валькирия (Valcuria) завладела вторым блоком и стала Гайвером 2, Сё. Она похитила Мицуки, чтобы остановить Сё и завладеть Гайвером 1.

Доп. информация:

Давным-давно инопланетяне из разных частей Вселенной прилетели на Землю. Их целью было создание мощнейшего биологического оружия для ведения инопланетных войн. С этой целью они создали на Земле жизнь и стали постепенно выводить всё новые виды живых организмов. Так появились все растения и животные, населяющие Землю, а также и человек. Но человек не был конечным продуктом эволюции: инопланетяне создали Зоаноидов — генетически изменённых людей, которые могут трансформироваться в монстров. Зоаноиды подчинялись телепатическим сигналам инопланетян, и они могли управлять Зоаноидами по своему усмотрению. Но однажды инопланетяне создали гайвера — еще один вид биологического оружия, представляющий из себя биомеханическую броню. Однако в ходе экспериментов оказалось, что гайвер не поддаётся контролю в отличие от Зоаноидов. гайвер отказался принять первоначальный облик носителя и убил тестового зоаноида, с помощью которого проводили испытания гайвера. Инопланетянам с большим трудом удалось убить носителя, а затем они покинули Землю. Почему они это сделали неизвестно: возможно они испугались последствий своих изобретений, в частности гайвера. Само название гайвер означает «Неконтролируемый», «Не поддающийся контролю», «Вне контроля», так как инопланетяне не смогли контролировать его.
1. AleXounDirector - Шо Фукамачи, 2 солдата Кроноса, диктор.
2. Azazel (Группа Shiza) - Водитель грузовика, Фумио Фукамачи, Грегол, Макашима, Вамор, 2 солдата Кроноса, Гайвер 3, диктор.
3. JonEA (SkyeFilmTV) - Малмот, Такая, учёный Кроноса, 1 солдат Кроноса.
4. *Gal4ёnok* - Мидзуки Сегава.
5. Vov@ 4ebod@ev - Моно (одноклассник Шо), инспектор Кроноса (который в очках).
Участницы аниме-клуба Haibane Renmei :
6. Кэтрин Ворона - Инспектор Валькирия\Гайвер 2.
7. Lex - Медсестра.
8. Karin - Мама Мидзуки (всего одна фраза).
Качество: DVDRip
Формат видео: AVI
Видео: Divx 5, 640x480, 1693 Kbps, 23,97 fps
Аудио: mp3, 224 Kbps, 48 KHz, stereo
General
Complete name : D:\Down\Guyver_1986_[alexoundirector].avi
Format : AVI
Format/Info : Audio Video Interleave
File size : 821 MiB
Duration : 53mn 15s
Overall bit rate : 2 156 Kbps
Writing application : VirtualDubMod 1.5.10.2 (build 2540/release)
Writing library : VirtualDubMod build 2540/release

Video
ID : 0
Format : MPEG-4 Visual
Format settings, BVOP : 1
Format settings, QPel : No
Format settings, GMC : No warppoints
Format settings, Matrix : Default (H.263)
Muxing mode : Packed bitstream
Codec ID : DX50
Codec ID/Hint : DivX 5
Duration : 53mn 15s
Bit rate : 1 695 Kbps
Width : 640 pixels
Height : 480 pixels
Display aspect ratio : 4:3
Frame rate : 23.976 fps
Color space : YUV
Chroma subsampling : 4:2:0
Bit depth : 8 bits
Scan type : Progressive
Compression mode : Lossy
Bits/(Pixel*Frame) : 0.230
Stream size : 646 MiB (79%)
Writing library : DivX 5.0.5 (UTC 2003-04-24)

Audio #1
ID : 1
Format : MPEG Audio
Format version : Version 1
Format profile : Layer 3
Mode : Joint stereo
Mode extension : MS Stereo
Codec ID : 55
Codec ID/Hint : MP3
Duration : 53mn 11s
Bit rate mode : Constant
Bit rate : 224 Kbps
Channel(s) : 2 channels
Sampling rate : 48.0 KHz
Compression mode : Lossy
Stream size : 85.2 MiB (10%)
Alignment : Split accross interleaves
Interleave, duration : 42 ms (1.00 video frame)
Interleave, preload duration : 500 ms

Audio #2
ID : 2
Format : MPEG Audio
Format version : Version 1
Format profile : Layer 3
Mode : Joint stereo
Codec ID : 55
Codec ID/Hint : MP3
Duration : 53mn 11s
Bit rate mode : Constant
Bit rate : 224 Kbps
Channel(s) : 2 channels
Sampling rate : 48.0 KHz
Compression mode : Lossy
Stream size : 85.2 MiB (10%)
Alignment : Split accross interleaves
Interleave, duration : 42 ms (1.00 video frame)
Interleave, preload duration : 500 ms
info [Профиль]  [ЛС] 

teshigawara1

Пол: Пол:Муж

Стаж: 3 года 11 месяцев

Сообщений: 42

Россия
Рейтинг

post 09-Авг-2016 21:52 (спустя 1 день 3 часа) [-]0[+]

[Цитировать] 

Это официальное описание или сам?
info [Профиль]  [ЛС] 

GaRI61

Пол: Пол:Муж

Стаж: 2 года

Сообщений: 221

Россия
Рейтинг

post 09-Авг-2016 22:00 (спустя 7 минут) [-]0[+]

[Цитировать] 

teshigawara1 писал(а):

Это официальное описание или сам?
Взято с wikipedia.

_________________
info [Профиль]  [ЛС] 
Показать сообщения:    
Ответить на тему

Текущее время: 08-Дек 04:15

Часовой пояс: GMT + 4



Вы не можете начинать темы
Вы не можете отвечать на сообщения
Вы не можете редактировать свои сообщения
Вы не можете удалять свои сообщения
Вы не можете голосовать в опросах
Вы не можете прикреплять файлы к сообщениям
Вы не можете скачивать файлы