Ошибка

Re: Жизнь в альтернативном мире с нуля / Re: Zero kara Hajimeru Isekai Seikatsu [TV] [1-5 из 25] [Special] [1-5 из 16] [2016 г, приключения, фэнтези, драма] [BDRip] [1080p] [Любительский (JAP+SUB)]

Ответить на тему
 
Автор Сообщение

Umi_Radio

Пол: Пол:Муж

Стаж: 5 месяцев 1 день

Сообщений: 83

Россия
Рейтинг

post 28-Июл-2016 02:59 0[+]

[Цитировать] 


Страна: Япония
Год выпуска: 2016 г.
Жанр: приключения, фэнтези, драма
Тип: TV
Продолжительность: 2 эп, ~25 мин. серия. 2 cпэшл по 15 минут.
Режиссер: Ватанабэ Масахару
Студия: White Fox
Субтитры:
1.субтитры от Fratelli [TV]
переводчик: Jenia
2.субтитры от YakuSub Studio [Special]
переводчик: Lulu, редактор: Aero, оформление: Helge
Озвучка
1.многоголосая от Kiara_Laine & Oriko & Balfor & Cuba77 (AniDub) [TV]
2.двухголосая муж/жен от Zendos & Eladiel (Onibaku) [TV]

Информационные ссылки: MAL | World Art | AniDB
Описание: На обратном пути из магазина Субару Нацуки неожиданно призывают в другой мир. Стоит чёрт знает где, самого призывающего ни следа, а на него ещё и нападают! Дело было бы совсем дрянь, если бы не прекрасная сереброволосая дева с пушистым котиком наперевес, которая спасает Субару, после чего тот в благодарность присоединяется к ней. Стоит им найти подсказку — и обоих тут же убивают.
Субару приходит в себя в том же месте, что в первый раз, и обнаруживает у себя неплохую способность — «Возврат в прошлое после смерти». Сможет ли беспомощный парень, умеющий только отматывать время, спасти девушку от смертельной участи?
Качество:BDRip
Тип видео: Без хардсаба, Без линковки
Формат видео: MKV
Видео: x264, Hi10P, 1920x1080, 23.976fps, 3175 Kbps
Аудио JAP: FLAC, 48.0 kHz, 2ch, 679 Kbps
Аудио RUS: AAC, 48.0 kHz, 2ch, 192 Kbps
Субтитры RUS (1): ASS (внешними файлами)
General
Unique ID : 188895306117858291683172512571285019206 (0x8E1BE9A2D171B2A1B9DCC67ACC679A46)
Complete name : c:\_my\dl\[Beatrice-Raws] Re Zero (Vol 1) [BDRip 1920x1080 x264 FLAC]\[Beatrice-Raws] Re Zero 01 [BDRip 1920x1080 x264 FLAC].mkv
Format : Matroska
Format version : Version 4 / Version 2
File size : 1.35 GiB
Duration : 50 min
Overall bit rate mode : Variable
Overall bit rate : 3 856 kb/s
Encoded date : UTC 2016-07-26 10:51:01
Writing application : mkvmerge v9.3.1 ('Mask Machine') 64bit
Writing library : libebml v1.3.4 + libmatroska v1.4.5

Video
ID : 1
Format : AVC
Format/Info : Advanced Video Codec
Format profile : High 10@L5
Format settings, CABAC : Yes
Format settings, ReFrames : 4 frames
Codec ID : V_MPEG4/ISO/AVC
Duration : 50 min
Bit rate : 3 175 kb/s
Width : 1 920 pixels
Height : 1 080 pixels
Display aspect ratio : 16:9
Frame rate mode : Constant
Frame rate : 23.976 (24000/1001) FPS
Color space : YUV
Chroma subsampling : 4:2:0
Bit depth : 10 bits
Scan type : Progressive
Bits/(Pixel*Frame) : 0.064
Stream size : 1.11 GiB (82%)
Title : BDRip by Vladdrako
Writing library : x264 core 148 r2597M e86f3a1 (DJATOM's build)
Encoding settings : cabac=1 / ref=4 / deblock=1:1:-1 / analyse=0x3:0x113 / me=umh / subme=9 / psy=1 / fade_compensate=0.00 / psy_rd=1.00:0.00 / mixed_ref=1 / me_range=32 / chroma_me=1 / trellis=2 / 8x8dct=1 / cqm=0 / deadzone=21,11 / fast_pskip=1 / chroma_qp_offset=-2 / threads=9 / lookahead_threads=1 / sliced_threads=0 / nr=0 / decimate=1 / interlaced=0 / bluray_compat=0 / constrained_intra=0 / bframes=9 / b_pyramid=2 / b_adapt=2 / b_bias=0 / direct=1 / weightb=1 / open_gop=0 / weightp=2 / keyint=250 / keyint_min=23 / scenecut=40 / intra_refresh=0 / rc=crf / mbtree=0 / crf=16.0000 / qcomp=0.72 / qpmin=0 / qpmax=81 / qpstep=4 / ip_ratio=1.40 / pb_ratio=1.30 / aq=1:0.85
Language : Japanese
Default : Yes
Forced : No
Color range : Limited
Color primaries : BT.709
Transfer characteristics : BT.709
Matrix coefficients : BT.709

Audio
ID : 2
Format : FLAC
Format/Info : Free Lossless Audio Codec
Codec ID : A_FLAC
Duration : 50 min
Bit rate mode : Variable
Bit rate : 679 kb/s
Channel(s) : 2 channels
Channel positions : Front: L R
Sampling rate : 48.0 kHz
Frame rate : 11.719 FPS (4096 spf)
Bit depth : 16 bits
Stream size : 243 MiB (18%)
Title : LPCM->FLAC
Writing library : libFLAC 1.3.1 (UTC 2014-11-25)
Language : Japanese
Default : Yes
Forced : No

Menu
00:00:00.000 : :Avant
00:02:30.024 : :Part A
00:10:08.024 : :Part B
00:25:05.003 : :Part C
00:34:48.086 : :Глава 05
00:47:33.475 : :ED
00:49:10.030 : :Next
01. Конец Начала и Начало Конца
02. Воссоединение с Ведьмой

S1. Starting Break Time from Zero - 01
S2. Starting Break Time from Zero - 02

В данном релизе озвучка и субтитры выложены внешними файлами.
Для просмотра на ПК
с озвучкой: переместите mka файлы из папки "Rus Sound -> [Команда\ники дабберов]" и ass файлы из папки "Rus Subs ->[Команда\ники сабберов] Надписи" (по желанию) в папку с видео.
с субтитрами: переместите ass файлы из папки "Rus Subs -> [Команда\ники сабберов] Полные" в папку с видео.

90% современных плееров подключат дорожки автоматически. Так же рекомендуется указать rus или ru, как язык по умолчанию для выбора дорожек, в настройках вашего плеера и(ли) рендера. Подробнее о настройке плеера можно прочитать <a href="viewtopic.php?t=2403326" class="postLink">тут</a>.
Для просмотра смартфоне или планшете: рекомендуется собрать необходимые дорожки для кажой серии в свой контейнер.
Если релиз содержит 10 битное видео, и у вас проблемы с качеством картинки, инструкцию по просмотру можно найти
Все видео файлы в моих релизах пересобираются. Вы не сможете раздавать их на других раздачах.
Если в релизе есть раздел "Порядок просмотра":
Скачайте все части тайтла.
Поместите все раздачи (видео и необходимые дорожки) в одну папку.
Все сезоны и серии будут в необходимом порядке для просмотра.
info [Профиль]  [ЛС] 

SaintFalen

Пол: Пол:Муж

Стаж: 2 года

Сообщений: 270

Россия
Рейтинг

post 28-Июл-2016 03:15 (спустя 16 минут) [-]0[+]

[Цитировать] 

Umi_Radio
Скриншоты перепутал

_________________
行く先へ手を伸ばす
info [Профиль]  [ЛС] 

Umi_Radio

Пол: Пол:Муж

Стаж: 5 месяцев 1 день

Сообщений: 83

Россия
Рейтинг

post 28-Июл-2016 03:16 (спустя 55 секунд) [-]-1[+]

[Цитировать] 

SaintFalen писал(а):

Umi_Radio
Скриншоты перепутал
ЙОПТ, как я мог не проверить, господе.

_________________
info [Профиль]  [ЛС] 

Dante8899

Стаж: 2 года 5 месяцев

Сообщений: 3

Рейтинг

post 31-Июл-2016 00:57 (спустя 2 дня 21 час) [-]0[+]

[Цитировать] 

Beatrice-Raws 2 диск рипнули. На рутрекре обновили раздачу. =)
info [Профиль]  [ЛС] 

Umi_Radio

Пол: Пол:Муж

Стаж: 5 месяцев 1 день

Сообщений: 83

Россия
Рейтинг

post 31-Июл-2016 02:15 (спустя 1 час 18 минут) [-]0[+]

[Цитировать] 

Добавлен 3,4,5 эпизод + 3,4,5 спэшл

_________________
info [Профиль]  [ЛС] 
Показать сообщения:    
Ответить на тему

Текущее время: 07-Дек 14:38

Часовой пояс: GMT + 4



Вы не можете начинать темы
Вы не можете отвечать на сообщения
Вы не можете редактировать свои сообщения
Вы не можете удалять свои сообщения
Вы не можете голосовать в опросах
Вы не можете прикреплять файлы к сообщениям
Вы не можете скачивать файлы