Ошибка

До окончания фрилича осталось:


Труп под ногами Сакурако / Sakurako-san No Ashimoto Ni Wa Shitai Ga Umatteiru [TV] [1-12 из 12] [2015 г., приключения, детектив, BDRip] [720p] [Любительский (JAP+SUB)]

Ответить на тему
 
Автор Сообщение

Umi_Radio

Пол: Пол:Муж

Стаж: 5 месяцев 3 дня

Сообщений: 83

Россия
Рейтинг

post 20-Июл-2016 03:16 0[+]

[Цитировать] 


Страна: Япония
Год выпуска: 2015
Жанр: приключения, детектив
Продолжительность: ТВ (12 эп.), по 25 мин.
Режиссер: Като Макото
Студия: TROYCA
Перевод:

1.Русские субтитры от [Timecraft] (диалоги\надписи); [1-12] | Внешние.
Перевод — Seiya Loveless, Редактура — atom4ik, AleX_MytH.
2.Русские субтитры от Antravoco (полные); [1-12] | Внешние.
chainsaws (перевод/оформление) Advokat & Kekcelt (редакция)
Озвучка:

двухголосая (муж./жен.) от Absurd & Eladiel (Onibaku)
Описание:Зачем старшеклассник Сётаро Татэваки регулярно проводит время с одинокой красавицей лет на десять его старше? А вот и не угадали! Сакурако Кудзё действительно умна, неотразима, происходит из знатной семьи и живет одна в солидном особняке. Вот только единственной страстью молодой женщины являются не искусство, не интриги или прожигание жизни, а… кости! Да, черноволосая наследница рода нашла свое призвание в остеологии, и ее любимое занятие – слоняться по округе, разыскивая кости; как животные, так и человеческие – они куда интереснее!

Почему главная героиня сделала Сётаро своим спутником? Причина, конечно же, есть – ведь случайностей не бывает. Главное, что в необычном тандеме именно младший партнер является голосом разума, не дает Сакурако-сан увлечься и сразу тащить добычу «в логово». Человеческие кости таят массу информации, и госпожа Кудзё, заинтересовавшись, способна распутать любое дело, мастерски оперируя знаниями биологии и судебной медицины. Полиции северного японского захолустья остается только аплодировать, а нам – наблюдать за новыми приключениями и расследованиями «охотников за костями»!
© Hollow, World Art
Информационные ссылки: AniDB || World Art || MAL
Качество: BDRip
Формат видео: MKV
Видео: x264 (10bit), 1280x720, ~2368 Kbps, 23.976 fps
Аудио JAP: Vorbis, 48000Hz, ~256 Kbps, 2ch (в составе контейнера)
Аудио RUS (ext): AAC, 192 kbps, 48.0 Hz, 2 ch (внешними файлами)
GОбщее
Уникальный идентификатор : 170776207275458379173242605992319901498 (0x807A4D17626C7BC685A1FE1F100FDF3A)
Полное имя : D:\ANIME\ [BDRip 720p]\01 - (BD 1280x720 x264 10 bit Vorbis).mkv
Формат : Matroska
Версия формата : Version 4 / Version 2
Размер файла : 457 Мбайт
Продолжительность : 24 м.
Режим общего битрейта : Переменный
Общий поток : 2618 Кбит/сек
Дата кодирования : UTC 2016-06-16 21:31:15
Программа кодирования : mkvmerge v7.1.0 ('Good Love') 64bit built on Jul 27 2014 13:06:55
Библиотека кодирования : libebml v1.3.0 + libmatroska v1.4.1

Видео
Идентификатор : 1
Формат : AVC
Формат/Информация : Advanced Video Codec
Профиль формата : High 10@L5
Параметр CABAC формата : Да
Параметр ReFrames формата : 9 кадров
Идентификатор кодека : V_MPEG4/ISO/AVC
Продолжительность : 24 м.
Битрейт : 2368 Кбит/сек
Ширина : 1280 пикселей
Высота : 720 пикселей
Соотношение сторон : 16:9
Режим частоты кадров : Постоянный
Частота кадров : 23,976 (24000/1001) кадра/сек
Цветовое пространство : YUV
Субдискретизация насыщенности : 4:2:0
Битовая глубина : 10 бит
Тип развёртки : Прогрессивная
Бит/(Пиксели*Кадры) : 0.107
Размер потока : 413 Мбайт (90%)
Заголовок : BDrip by Jensen
Библиотека кодирования : x264 core 148 r2579 73ae2d1
Настройки программы : cabac=1 / ref=9 / deblock=1:-2:-2 / analyse=0x3:0x113 / me=umh / subme=9 / psy=1 / psy_rd=0.75:0.10 / mixed_ref=1 / me_range=32 / chroma_me=1 / trellis=2 / 8x8dct=1 / cqm=0 / deadzone=21,11 / fast_pskip=0 / chroma_qp_offset=-3 / threads=6 / lookahead_threads=1 / sliced_threads=0 / nr=0 / decimate=1 / interlaced=0 / bluray_compat=0 / constrained_intra=0 / bframes=9 / b_pyramid=2 / b_adapt=2 / b_bias=0 / direct=1 / weightb=1 / open_gop=0 / weightp=2 / keyint=240 / keyint_min=23 / scenecut=40 / intra_refresh=0 / rc=crf / mbtree=0 / crf=14.5 / qcomp=0.72 / qpmin=0 / qpmax=81 / qpstep=4 / ip_ratio=1.40 / pb_ratio=1.30 / aq=1:0.85 / zones=31736,33864,b=0.2
Язык : Japanese
Default : Да
Forced : Нет
Цветовой диапазон : Limited
Основные цвета : BT.709
Характеристики трансфера : BT.709
Коэффициенты матрицы : BT.709

Аудио
Идентификатор : 2
Формат : Vorbis
Параметр Floor формата : 1
Идентификатор кодека : A_VORBIS
Продолжительность : 24 м.
Вид битрейта : Переменный
Битрейт : 256 Кбит/сек
Каналы : 2 канала
Частота : 48,0 КГц
Частота кадров : 125,586 кадров/сек (382 spf)
Метод сжатия : С потерями
Размер потока : 43,1 Мбайт (9%)
Библиотека кодирования : aoTuV 20110424 (UTC 2011-04-24)
Язык : Japanese
Default : Да
Forced : Нет

Меню
00:00:00.000 : en:00:00:00.000
00:04:32.439 : en:00:04:32.439
00:11:46.038 : en:00:11:46.038
00:22:03.322 : en:00:22:03.322
00:23:33.328 : en:00:23:33.328
01. Принцесса, которая обожает кости / The Princess Who Loves Bones
02. Где ты живёшь? / Where Do You Live?
03. Кости усопших летом / The Bones That Slumber in Summer
04. Проклятый. Часть первая / The Cursed Man, Part 1
05. Проклятый. Часть вторая / The Cursed Man, Part 2
06. Случай на мосту Асахибаси / Asahi Bridge Irregulars
07. Вверенные кости. Часть первая / The Entrusted Bones, Part 1
08. Вверенные кости. Часть вторая / The Entrusted Bones, Part 2
09. Бабушкин пудинг / Grandmother`s Pudding
10. Бабочка, растаявшая в ноябре. Часть первая / The Butterfly Vanished in November, Part 1
11. Бабочка, растаявшая в ноябре. Часть вторая / The Butterfly Vanished in November, Part 2
12. Сакурако на... / Under Sakurako-san`s Feet...

Special
info [Профиль]  [ЛС] 

Cicad

Пол: Пол:Жен

Стаж: 7 лет 2 месяца

Сообщений: 91

Польша
Рейтинг

post 20-Июл-2016 21:32 (спустя 18 часов) [-]0[+]

[Цитировать] 

И как оно?? Черный юморок присутствует? =)
info [Профиль]  [ЛС] 

Umi_Radio

Пол: Пол:Муж

Стаж: 5 месяцев 3 дня

Сообщений: 83

Россия
Рейтинг

post 20-Июл-2016 22:04 (спустя 31 минута) [-]0[+]

[Цитировать] 

Cicad писал(а):

И как оно?? Черный юморок присутствует? =)
Есть

_________________
info [Профиль]  [ЛС] 
Показать сообщения:    
Ответить на тему

Текущее время: 09-Дек 23:25

Часовой пояс: GMT + 4



Вы не можете начинать темы
Вы не можете отвечать на сообщения
Вы не можете редактировать свои сообщения
Вы не можете удалять свои сообщения
Вы не можете голосовать в опросах
Вы не можете прикреплять файлы к сообщениям
Вы не можете скачивать файлы