Ошибка

До окончания фрилича осталось:


Перезапись / Rewrite (Танака Мотоки) [TV] [1-2 из 12] [2016 г., школа, Романтика, Комедия, Экшен HDTVRip] [720p] [Субтитры (JAP)]

Ответить на тему
 
Автор Сообщение

Umi_Radio

Пол: Пол:Муж

Стаж: 5 месяцев 4 дня

Сообщений: 83

Россия
Рейтинг

post 17-Июл-2016 00:43 0[+]

[Цитировать] 

Страна: Япония
Год выпуска: 2016 г.
Жанр: Школа, Романтика, Комедия, Экшен
Тип: TV
Продолжительность: 12 эп. по 25 мин. 1 эп 48 минут.
Режиссер: Танака Мотоки
Студия: 8bit
Субтитры:
Русские субтитры: Sovet Romantica
Переводчик/Оформление: Gyks
Тайминг, редактура, оформление: Sempre_Libеra
Информационные ссылки: MAL | World Art | AniDB
Описание: Казамацури, современный высокоразвитый город, известный за живописные строения и приверженность японской культуре, является домом Котаро Тенноудзи. Он обычный старшеклассник, не разделяющий общие ценности. Он наслаждается свободой и коротает время, надоедая школьному хулигану Харухико и потакая своей влюблённости в чудачку Котори. Котаро неизбежно привлекает к себе людей со сверхспособностями, так как сам обладает способностью надолго переделывать любую часть тела, делая её сильнее или быстрее. Одна лишь встреча с единственным членом и президентом Клуба Оккультных Исследований - "Ведьмой" Акане Сенри - приводит к тому, что Котаро возрождает Клуб Оккультных Исследований, приглашая туда Котори и ещё трёх ребят. Это неуклюжий переведённый ученик Чихая, строгая представитель класса Люция и скромница Шизуру. По мере того, как Котаро в ходе совместных приключений раскрывает секреты каждого члена Клуба, он неизбежно сталкивается с собственной судьбой и понимает, что, возможно, его способность уникальна
Качество: HDTVRip
Тип видео: Без хардсаба, Без линковки
Формат видео: MP4
Видео: х264, 8 bits, 1280x720, 1896 kbps, 23.976 fps, (16:9)
Аудио JAP AAC, 192 kbps, 48.0 KHz, 2 ch Язык Японский
Субтитры RUS (1): ASS (внешними файлами)
Общее
Полное имя : D:\[Leopard-Raws]\[Leopard-Raws] ReWrite\[Leopard-Raws] ReWrite - 01 RAW (BS11 1280x720 x264 AAC).mp4
Формат : MPEG-4
Профиль формата : Base Media
Идентификатор кодека : isom
Размер файла : 718 Мбайт
Продолжительность : 47 м.
Режим общего битрейта : Переменный
Общий поток : 2092 Кбит/сек
Дата кодирования : UTC 2016-07-02 22:28:15
Дата пометки : UTC 2016-07-02 22:28:15

Видео
Идентификатор : 1
Формат : AVC
Формат/Информация : Advanced Video Codec
Профиль формата : High@L4.1
Параметр CABAC формата : Да
Параметр ReFrames формата : 4 кадра
Идентификатор кодека : avc1
Идентификатор кодека/Информация : Advanced Video Coding
Продолжительность : 47 м.
Битрейт : 1896 Кбит/сек
Максимальный битрейт : 12,0 Мбит/сек
Ширина : 1280 пикселей
Высота : 720 пикселей
Соотношение сторон : 16:9
Режим частоты кадров : Постоянный
Частота кадров : 23,976 кадра/сек
Цветовое пространство : YUV
Субдискретизация насыщенности : 4:2:0
Битовая глубина : 8 бит
Тип развёртки : Прогрессивная
Бит/(Пиксели*Кадры) : 0.086
Размер потока : 651 Мбайт (91%)
Заголовок : 264:fps=23.976@GPAC0.5.1-DEV-rev4929
Библиотека кодирования : x264 core 129 r2245+729M 1a52e03
Настройки программы : cabac=1 / ref=4 / deblock=1:1:-1 / analyse=0x3:0x113 / me=umh / subme=9 / psy=1 / fade_compensate=0.00 / psy_rd=1.00:0.00 / mixed_ref=1 / me_range=24 / chroma_me=1 / trellis=2 / 8x8dct=1 / cqm=0 / deadzone=21,11 / fast_pskip=1 / chroma_qp_offset=-2 / threads=8 / lookahead_threads=1 / sliced_threads=0 / nr=0 / decimate=1 / interlaced=0 / bluray_compat=0 / constrained_intra=0 / fgo=0 / bframes=9 / b_pyramid=2 / b_adapt=2 / b_bias=0 / direct=1 / weightb=1 / open_gop=0 / weightp=2 / keyint=240 / keyint_min=24 / scenecut=40 / intra_refresh=0 / rc=crf / mbtree=0 / crf=17.0 / qcomp=0.72 / qpmin=0 / qpmax=69 / qpstep=4 / ip_ratio=1.40 / pb_ratio=1.30 / aq=1:0.85
Дата кодирования : UTC 2016-07-02 22:28:15
Дата пометки : UTC 2016-07-02 22:28:27
Основные цвета : BT.709
Характеристики трансфера : BT.709
Коэффициенты матрицы : BT.709

Аудио
Идентификатор : 2
Формат : AAC
Формат/Информация : Advanced Audio Codec
Профиль формата : LC
Идентификатор кодека : 40
Продолжительность : 47 м.
Вид битрейта : Переменный
Битрейт : 192 Кбит/сек
Максимальный битрейт : 237 Кбит/сек
Каналы : 2 канала
Расположение каналов : Front: L R
Частота : 48,0 КГц
Метод сжатия : С потерями
Размер потока : 65,7 Мбайт (9%)
Язык : Japanese
Дата кодирования : UTC 2016-07-02 18:04:46
Дата пометки : UTC 2016-07-02 22:28:272
01. The World or Myself?
02. Where Youth Begins

В данном релизе озвучка и субтитры выложены внешними файлами.
Для просмотра на ПК
с озвучкой: переместите mka файлы из папки "Rus Sound -> [Команда\ники дабберов]" и ass файлы из папки "Rus Subs ->[Команда\ники сабберов] Надписи" (по желанию) в папку с видео.
с субтитрами: переместите ass файлы из папки "Rus Subs -> [Команда\ники сабберов] Полные" в папку с видео.

90% современных плееров подключат дорожки автоматически. Так же рекомендуется указать rus или ru, как язык по умолчанию для выбора дорожек, в настройках вашего плеера и(ли) рендера. Подробнее о настройке плеера можно прочитать <a href="viewtopic.php?t=2403326" class="postLink">тут</a>.
Для просмотра смартфоне или планшете: рекомендуется собрать необходимые дорожки для кажой серии в свой контейнер.
Если релиз содержит 10 битное видео, и у вас проблемы с качеством картинки, инструкцию по просмотру можно найти
Все видео файлы в моих релизах пересобираются. Вы не сможете раздавать их на других раздачах.
Если в релизе есть раздел "Порядок просмотра":
Скачайте все части тайтла.
Поместите все раздачи (видео и необходимые дорожки) в одну папку.
Все сезоны и серии будут в необходимом порядке для просмотра.
info [Профиль]  [ЛС] 
Показать сообщения:    
Ответить на тему

Текущее время: 10-Дек 03:20

Часовой пояс: GMT + 4



Вы не можете начинать темы
Вы не можете отвечать на сообщения
Вы не можете редактировать свои сообщения
Вы не можете удалять свои сообщения
Вы не можете голосовать в опросах
Вы не можете прикреплять файлы к сообщениям
Вы не можете скачивать файлы