Ошибка

Сказания Зестирии / Tales of Zestiria the X [TV] [1-2 из 13] [2016 г., приключения, фэнтези, HDTVRip] [720p] [Любительский (JAP+SUB)]

Ответить на тему
 
Автор Сообщение

Umi_Radio

Пол: Пол:Муж

Стаж: 5 месяцев

Сообщений: 83

Россия
Рейтинг

post 16-Июл-2016 20:46 0[+]

[Цитировать] 


Страна: Япония
Год выпуска: 2016 г.
Жанр: Приключения, Фэнтези
Тип: TV
Продолжительность: 2 эп, ~25 мин. серия
Режиссер: Сотодзаки Харуо
Студия: UFO Table
Субтитры:
1.Русские субтитры от Waspil & Nemo
2.Русские субтитры от Mermaid2/3
Информационные ссылки: MAL | World Art | AniDB
Описание: Юноша по имени Слей вырос в окружении серафимов — божественных существ, скрытых от глаз обычных людей. Он всегда верил в легенду, гласящую, что давным-давно каждый без исключения человек мог видеть серафимов, и мечтал, чтобы обе расы снова начали жить в мире и гармонии друг с другом. Впервые очутившись в человеческой столице, Слей невольно становится участником инцидента, в ходе которого вытаскивает из скалы святой меч. Следом за этим он провозглашается одним из тех, кого называют «пастырями», — человеком, обязанным защищать мир от зла. Вскоре юноша начинает осознавать, какая ответственность лежит на его плечах, и мечта о сосуществовании людей и серафимов становится все реальней... На пути к желаемому юного пастыря поджидает множество опасностей, но вместе с верными друзьями он обязательно преодолеет их все!
Качество: HDTVRip
Тип видео: Без хардсаба, Без линковки
Формат видео: MP4
Видео: AVC, 1280x720, 4138 kbps, 23.976 fps [8 bit]
Аудио RUS: 1 Russian AC3, 48.0 KHz, 192 kbps, 2 ch (внешние) - [SHIZA];
Аудио RUS: 2. pic Russian AC3, 48.0 KHz, 192 kbps, 2 ch (внешние) - [Anilibria];
Аудио RUS: 3. pic Russian AC3, 48.0 KHz, 192 kbps, 2 ch (внешние) - [Animedia];
Аудио RUS: 4. pic Russian AC3, 48.0 KHz, 192 kbps, 2 ch (внешние) - [KitsuneBox];
Аудио RUS: 5. pic Russian AC3, 48.0 KHz, 192 kbps, 2 ch (внешние) - [AniPlay];
Аудио JAP 6. pic Japanese AAC, 48.0 KHz, 192 kbps, 2 ch;
Субтитры RUS (1): ASS (внешними файлами)
General
Format : MPEG-4
Format profile : Base Media
Codec ID : isom
File size : 744 MiB
Duration : 23mn 59s
Overall bit rate mode : Variable
Overall bit rate : 4 333 Kbps
Encoded date : UTC 2016-07-03 18:13:29
Tagged date : UTC 2016-07-03 18:13:29
Video #1
ID : 1
Format : AVC
Format/Info : Advanced Video Codec
Format profile : High@L4.1
Format settings, CABAC : Yes
Format settings, ReFrames : 4 frames
Codec ID : avc1
Codec ID/Info : Advanced Video Coding
Duration : 23mn 59s
Bit rate : 4 138 Kbps
Maximum bit rate : 26.4 Mbps
Width : 1 280 pixels
Height : 720 pixels
Display aspect ratio : 16:9
Frame rate mode : Constant
Frame rate : 23.976 fps
Color space : YUV
Chroma subsampling : 4:2:0
Bit depth : 8 bits
Scan type : Progressive
Bits/(Pixel*Frame) : 0.187
Stream size : 710 MiB (95%)
Title : 264:fps=23.976@GPAC0.5.1-DEV-rev4929
Writing library : x264 core 129 r2245+729M 1a52e03
Encoding settings : cabac=1 / ref=4 / deblock=1:1:-1 / analyse=0x3:0x113 / me=umh / subme=9 / psy=1 / fade_compensate=0.00 / psy_rd=1.00:0.00 / mixed_ref=1 / me_range=24 / chroma_me=1 / trellis=2 / 8x8dct=1 / cqm=0 / deadzone=21,11 / fast_pskip=1 / chroma_qp_offset=-2 / threads=8 / lookahead_threads=1 / sliced_threads=0 / nr=0 / decimate=1 / interlaced=0 / bluray_compat=0 / constrained_intra=0 / fgo=0 / bframes=9 / b_pyramid=2 / b_adapt=2 / b_bias=0 / direct=1 / weightb=1 / open_gop=0 / weightp=2 / keyint=240 / keyint_min=24 / scenecut=40 / intra_refresh=0 / rc=crf / mbtree=0 / crf=17.5 / qcomp=0.72 / qpmin=0 / qpmax=69 / qpstep=4 / ip_ratio=1.40 / pb_ratio=1.30 / aq=1:0.85
Encoded date : UTC 2016-07-03 18:13:29
Tagged date : UTC 2016-07-03 18:13:32
Color primaries : BT.709
Transfer characteristics : BT.709
Matrix coefficients : BT.709
Audio #2
ID : 2
Format : AAC
Format/Info : Advanced Audio Codec
Format profile : LC
Codec ID : 40
Duration : 23mn 59s
Bit rate mode : Variable
Bit rate : 192 Kbps
Maximum bit rate : 232 Kbps
Channel(s) : 2 channels
Channel positions : Front: L R
Sampling rate : 48.0 KHz
Compression mode : Lossy
Stream size : 32.9 MiB (4%)
Language : Japanese
Encoded date : UTC 2016-07-03 15:09:40
Tagged date : UTC 2016-07-03 18:13:32
01. Плохие времена / Age of Chaos
02. Столица Божеств / Capital of Seraphim
Двухголосая от (муж/жен) Dancel & Lianna (SHIZA)
Многоголосая от Sharon & Ados & Amikiri & Lali (Anilibria)
Многоголосая от Nazel & Freya & Kobayashi & Wayfarer & Kashi (Animedia)
Двухголосая от (муж/жен) Dark_Demon & GranDina (KitsuneBox)
Двухголосая от (муж/жен) Majestic-Kun & Mysterious (AniPlay)

В данном релизе озвучка и субтитры выложены внешними файлами.
Для просмотра на ПК
с озвучкой: переместите mka файлы из папки "Rus Sound -> [Команда\ники дабберов]" и ass файлы из папки "Rus Subs ->[Команда\ники сабберов] Надписи" (по желанию) в папку с видео.
с субтитрами: переместите ass файлы из папки "Rus Subs -> [Команда\ники сабберов] Полные" в папку с видео.

90% современных плееров подключат дорожки автоматически. Так же рекомендуется указать rus или ru, как язык по умолчанию для выбора дорожек, в настройках вашего плеера и(ли) рендера. Подробнее о настройке плеера можно прочитать <a href="viewtopic.php?t=2403326" class="postLink">тут</a>.
Для просмотра смартфоне или планшете: рекомендуется собрать необходимые дорожки для кажой серии в свой контейнер.
Если релиз содержит 10 битное видео, и у вас проблемы с качеством картинки, инструкцию по просмотру можно найти
Все видео файлы в моих релизах пересобираются. Вы не сможете раздавать их на других раздачах.
Если в релизе есть раздел "Порядок просмотра":
Скачайте все части тайтла.
Поместите все раздачи (видео и необходимые дорожки) в одну папку.
Все сезоны и серии будут в необходимом порядке для просмотра.
info [Профиль]  [ЛС] 

DaiverTula

Стаж: 4 года 4 месяца

Сообщений: 6

СССР
Рейтинг

post 16-Июл-2016 22:29 (спустя 1 час 42 минуты) [-]0[+]

[Цитировать] 

как оно?
info [Профиль]  [ЛС] 

Umi_Radio

Пол: Пол:Муж

Стаж: 5 месяцев

Сообщений: 83

Россия
Рейтинг

post 16-Июл-2016 23:09 (спустя 40 минут) [-]0[+]

[Цитировать] 

DaiverTula писал(а):

как оно?
7-8 из 10

_________________
info [Профиль]  [ЛС] 

Game_Stalker

Пол: Пол:Муж

Стаж: 4 года 4 месяца

Сообщений: 59

Россия
Рейтинг

post 16-Июл-2016 23:37 (спустя 27 минут) [-]0[+]

[Цитировать] 

Umi_Radio писал(а):

DaiverTula писал(а):

как оно?
7-8 из 10
Переводя на русский - не посмотрите, пожалеете?

_________________
Хочешь сделать хорошо - сделай это сам.
info [Профиль]  [ЛС] 

Umi_Radio

Пол: Пол:Муж

Стаж: 5 месяцев

Сообщений: 83

Россия
Рейтинг

post 16-Июл-2016 23:41 (спустя 3 минуты) [-]2[+]

[Цитировать] 

Game_Stalker писал(а):

Umi_Radio писал(а):

DaiverTula писал(а):

как оно?
7-8 из 10
Переводя на русский - не посмотрите, пожалеете?
Нет. Переводя на русский-потратите время не скучая.
А вот "город в котором меня нет" точно стоит просмотра.

_________________
info [Профиль]  [ЛС] 
Показать сообщения:    
Ответить на тему

Текущее время: 06-Дек 22:01

Часовой пояс: GMT + 4



Вы не можете начинать темы
Вы не можете отвечать на сообщения
Вы не можете редактировать свои сообщения
Вы не можете удалять свои сообщения
Вы не можете голосовать в опросах
Вы не можете прикреплять файлы к сообщениям
Вы не можете скачивать файлы