Ошибка

Я - Сакамото, а что? / Sakamoto Desu ga? (TV) [1-13 из 13] [2016] [Комедия, школа] [HDTV720p] [Любительский]

Ответить на тему
 
Автор Сообщение

Chel90RUS

Пол: Пол:Муж

Стаж: 5 лет 5 месяцев

Сообщений: 413

Россия
Рейтинг

post 08-Июл-2016 12:35 1[+]

[Цитировать] 

pic="http://static2.anidub.com/tracker/poster/9497b367a1.jpg"
Я - Сакамото, а что?
Sakamoto Desu ga? / Haven't You Heard? I'm Sakamoto / 坂本ですが?

Год выпуска: 2016
Жанр: Комедия, школа
Страна: Япония
Тип: HDTV
Продолжительность: 13 серий ~ 25 мин
Дата выпуска: c 08.04.2016 (13 серия выйдет на БД 26 сентября)
Режиссер: Такамацу Синдзи
Автор оригинала / Сценарист: Сано Нами
Студия: Studio Deen
Озвучено: Гамлетка Цезаревна, 9й Неизвестный
Перевод: GoggerToy
Тайминг и работа со звуком: 9й Неизвестный
Формат файла: Mp4
Аудио: AAC 48000Hz stereo 95kbps [A: aac lc, 48000 Hz, stereo, 95 kb/s]
Видео: MPEG4 Video (H264) 1280x720 23.976fps 2916kbps [V: h264 high L4.1, yuv420p, 1280x720, 2916 kb/s]

General
Complete name : \[AniDub]_Sakamoto_Desu_ga_[01]_[720p_x264_Aac]_[Hamletka_Cezarevna_9th_Unknown].mp4
Format : MPEG-4
Format profile : Base Media
Codec ID : isom
File size : 529 MiB
Duration : 24mn 30s
Overall bit rate mode : Variable
Overall bit rate : 3 016 Kbps
Encoded date : UTC 2016-04-09 21:24:53
Tagged date : UTC 2016-04-09 21:24:53

Video
ID : 1
Format : AVC
Format/Info : Advanced Video Codec
Format profile : High@L4.1
Format settings, CABAC : Yes
Format settings, ReFrames : 4 frames
Codec ID : avc1
Codec ID/Info : Advanced Video Coding
Duration : 24mn 29s
Bit rate : 2 917 Kbps
Maximum bit rate : 19.9 Mbps
Width : 1 280 pixels
Height : 720 pixels
Display aspect ratio : 16:9
Frame rate mode : Constant
Frame rate : 23.976 fps
Color space : YUV
Chroma subsampling : 4:2:0
Bit depth : 8 bits
Scan type : Progressive
Bits/(Pixel*Frame) : 0.132
Stream size : 511 MiB (97%)
Writing library : x264 core 129 r2245+729M 1a52e03
Encoding settings : cabac=1 / ref=4 / deblock=1:1:-1 / analyse=0x3:0x113 / me=umh / subme=9 / psy=1 / fade_compensate=0.00 / psy_rd=1.00:0.00 / mixed_ref=1 / me_range=24 / chroma_me=1 / trellis=2 / 8x8dct=1 / cqm=0 / deadzone=21,11 / fast_pskip=1 / chroma_qp_offset=-2 / threads=8 / lookahead_threads=1 / sliced_threads=0 / nr=0 / decimate=1 / interlaced=0 / bluray_compat=0 / constrained_intra=0 / fgo=0 / bframes=9 / b_pyramid=2 / b_adapt=2 / b_bias=0 / direct=1 / weightb=1 / open_gop=0 / weightp=2 / keyint=240 / keyint_min=24 / scenecut=40 / intra_refresh=0 / rc=crf / mbtree=0 / crf=17.5 / qcomp=0.72 / qpmin=0 / qpmax=69 / qpstep=4 / ip_ratio=1.40 / pb_ratio=1.30 / aq=1:0.85
Encoded date : UTC 2016-04-08 08:48:19
Tagged date : UTC 2016-04-09 21:25:25
Color range : Limited
Color primaries : BT.709
Transfer characteristics : BT.709
Matrix coefficients : BT.709

Audio
ID : 2
Format : AAC
Format/Info : Advanced Audio Codec
Format profile : LC
Codec ID : 40
Duration : 24mn 30s
Bit rate mode : Variable
Bit rate : 96.0 Kbps
Maximum bit rate : 124 Kbps
Channel(s) : 2 channels
Channel positions : Front: L R
Sampling rate : 48.0 KHz
Compression mode : Lossy
Stream size : 16.8 MiB (3%)
Encoded date : UTC 2016-04-09 21:24:01
Tagged date : UTC 2016-04-09 21:25:25


Описание:Школьник-первогодка Сакамото круче, чем все варёные яйца мира! В первый же учебный день он привлекает массу внимания. Девушки его обожают, парни негодуют. Даже парень-модель оказывается в его тени. Какие бы фокусы не старалась провернуть мужская часть школьников, главный герой всегда изящен и блистателен. Сакамото может казаться гордым одиночкой, но не отказывает в помощи, в том числе одному пареньку, которого вечно задирают. С какими бы препятствиями не сталкивался красавец, он преодолевает их с уверенностью и достоинством.


Добавлена 13 серия 03/10/2016
info [Профиль]  [ЛС] 

lex3a

Пол: Пол:Муж

Стаж: 4 года 1 месяц

Сообщений: 14

Россия
Рейтинг

post 08-Июл-2016 23:36 (спустя 11 часов) [-]4[+]

[Цитировать] 

Судя по описанию какой-то интеллигентный Ванпанчмен Улыбаюсь
info [Профиль]  [ЛС] 

Chel90RUS

Пол: Пол:Муж

Стаж: 5 лет 5 месяцев

Сообщений: 413

Россия
Рейтинг

post 03-Окт-2016 16:59 (спустя 2 месяца 25 дней) [-]0[+]

[Цитировать] 

Добавлена 13 серия 03/10/2016

_________________
info [Профиль]  [ЛС] 
Показать сообщения:    
Ответить на тему

Текущее время: 11-Дек 14:04

Часовой пояс: GMT + 4



Вы не можете начинать темы
Вы не можете отвечать на сообщения
Вы не можете редактировать свои сообщения
Вы не можете удалять свои сообщения
Вы не можете голосовать в опросах
Вы не можете прикреплять файлы к сообщениям
Вы не можете скачивать файлы