Ошибка

Унесенные ветром / Gone with the Wind (Виктор Флеминг, Джордж Кьюкор, Сэм Вуд) [1939, мелодрама, драма, военный, BDRip 1080p]

Ответить на тему
 
Автор Сообщение

antonsarov

Пол: Пол:Муж

Стаж: 5 месяцев 25 дней

Сообщений: 15

Россия
Рейтинг

post 29-Июн-2016 03:29 7[+]

[Цитировать] 

Унесенные ветром / Gone with the Wind

Год выхода: 1939
Страна: США
Жанр: мелодрама, драма, военный
Продолжительность: 03:53:14
Перевод: Профессиональный (полное дублирование), многоголосый закадровый, одноголосный
Субтитры: Russian, Ukrainian, English (SDH, Full)
Режиссер: Виктор Флеминг, Джордж Кьюкор, Сэм Вуд
В ролях: Вивьен Ли, Кларк Гейбл, Лесли Ховард, Оливия Де Хэвиллэнд, Оскар Полк, Хэтти МакДэниэл, Эверетт Браун, Томас Митчел, Барбара О`Нил, Эвелин Кийес, Энн Рутерфорд, Джордж Ривз, Фред Крэйн, Баттерфлай МакКуин, Виктор Джори, Ховард С. Хикман, Алисия Ретт, Рэнд Брукс, Кэрролл Най, Лаура Хоуп Крюс, Эдди «Рочестер» Андерсон
Описание: Незабываемый любовный роман времен американской Гражданской войны. Бессмертным героям этой эпической саги Скарлетт, Ретт, Эшли, Мелани, Матушка и Присси — удалось покорить не одно поколение кинозрителей.
Рейтинг фильма:

Релиз от:

Качество: BDRip 1080p
Формат: AVC
Видео кодек: MPEG4
Аудио кодек: АС3 | DTS 5.1
Видео: MPEG4, 1480x1080 at 23.976 fps, x264@L4.1, ~12500 kbps avg
Аудио#1: Русский:48 kHz, AC3, 2/0 (L,R) ch, ~192 kbps avg |Советский дубляж|
Аудио#2: Русский: 48 kHz, AC3, 2/0 (L,R) ch, ~192 kbps avg |Советский дубляж+вставка дубляжа c BD CEE|
Аудио#3: Русский: 48 kHz, AC3, 3/2 (L,C,R,l,r) + LFE ch, ~384 kbps avg|Дубляж BD CEE|
Аудио#4: Русский:48 kHz/16-bit, DTS 5.1, ~1509 kbps avg |Многоголосый, DVDMagic ранний|
Аудио#5: Русский:48 kHz/16-bit, DTS 5.1, ~1509 kbps avg |Многоголосый, DVDMagic поздний|
Аудио#6: Русский: 48 kHz, AC3, 2/0 (L,R) ch, ~192 kbps avg|Многоголосый, Варус Видео/ТК "Домашний"|
Аудио#7: Русский:48 kHz/16-bit, DTS 5.1, ~768 kbps avg| Многоголосый, неизвестный|
Аудио#8: Русский:48 kHz, AC3, 2/0 (L,R) ch, ~192 kbps avg |Авторский, А.Михалев - ранний перевод|
Аудио#9: Русский: 48 kHz, AC3, 2/0 (L,R) ch, ~192 kbps avg |Авторский, А.Михалев - поздний перевод|
Аудио#10: Русский: 48 kHz, AC3, 2/0 (L,R) ch, ~192 kbps avg |Авторский, А.Гаврилов|
Аудио#11: Русский:48 kHz, AC3, 2/0 (L,R) ch, ~192 kbps avg |Авторский, В.Горчаков|
Аудио#12: Русский: 48 kHz/16-bit, DTS 5.1, ~1509 kbps avg|Авторский, Ю.Живов|
Аудио#13: Русский:48 kHz/16-bit, DTS 5.1, ~1509 kbps avg|Авторский, М.Иванов|
Аудио#14: Русский:48 kHz, AC3, 2/0 (L,R) ch, ~192 kbps avg |Авторский, В.Сонькин|
Аудио#15: Русский:48 kHz/16-bit, DTS 5.1, ~1509 kbps avg |Авторский, Карпов|
Аудио#16: Украинский: 48 kHz, AC3, 3/2 (L,C,R,l,r) + LFE ch, ~384 kbps avg |Многоголосый, ТК "Новий"|
Аудио#17: Английский: 48 kHz, AC3, 3/2 (L,C,R,l,r) + LFE ch, ~640 kbps avg
Аудио#18: Английский: |Original Mono Track|48 kHz, AC3, 1.0 ch, ~192 kbps avg
Аудио#19: Английский: |Commentary|48 kHz, AC3, 2/0 (L,R) ch, ~192 kbps avg
General
Unique ID : 228728213894160270917771647426905623344 (0xAC13739DCB4B6DADAB3795448A81CB30)
Complete name : D:\Раздачи\Gone.with.the Wind.[tapochek.net]\Gone.with.the Wind.mkv
Format : Matroska
Format version : Version 4 / Version 2
File size : 39.3 GiB
Duration : 3h 53mn
Overall bit rate : 24.1 Mbps
Encoded date : UTC 2016-02-05 08:48:48
Writing application : mkvmerge v8.3.0 ('Over the Horizon') 64bit
Writing library : libebml v1.3.1 + libmatroska v1.4.2
Attachements : cover.jpg
DURATION : 03:41:34.156000000
NUMBER_OF_FRAMES : 3076
NUMBER_OF_BYTES : 122870
_STATISTICS_WRITING_APP : mkvmerge v8.3.0 ('Over the Horizon') 64bit
_STATISTICS_WRITING_DATE_UT : 2016-02-05 08:48:48
_STATISTICS_TAGS : BPS DURATION NUMBER_OF_FRAMES NUMBER_OF_BYTES

Video
ID : 1
Format : AVC
Format/Info : Advanced Video Codec
Format profile : High@L4.1
Format settings, CABAC : Yes
Format settings, ReFrames : 5 frames
Codec ID : V_MPEG4/ISO/AVC
Duration : 3h 53mn
Bit rate : 12.5 Mbps
Width : 1 480 pixels
Height : 1 080 pixels
Display aspect ratio : 1.370
Frame rate mode : Constant
Frame rate : 23.976 fps
Color space : YUV
Chroma subsampling : 4:2:0
Bit depth : 8 bits
Scan type : Progressive
Bits/(Pixel*Frame) : 0.326
Stream size : 19.6 GiB (50%)
Writing library : x264 core 148 r2638+53 bb29004 t_mod_Custom [8-bit@all X86_64]
Encoding settings : cabac=1 / ref=5 / deblock=1:-3:-3 / analyse=0x3:0x133 / me=umh / subme=10 / psy=1 / fade_compensate=0.00 / psy_rd=1.10:0.05 / mixed_ref=1 / me_range=24 / chroma_me=1 / trellis=2 / 8x8dct=1 / cqm=0 / deadzone=21,11 / fast_pskip=0 / chroma_qp_offset=-3 / threads=6 / lookahead_threads=1 / sliced_threads=0 / nr=0 / decimate=1 / interlaced=0 / bluray_compat=0 / constrained_intra=0 / fgo=0 / bframes=4 / b_pyramid=2 / b_adapt=2 / b_bias=0 / direct=3 / weightb=1 / open_gop=0 / weightp=2 / keyint=250 / keyint_min=23 / scenecut=40 / intra_refresh=0 / rc=2pass / mbtree=0 / bitrate=12500 / ratetol=1.0 / qcomp=0.70 / qpmin=0:0:0 / qpmax=69:69:69 / qpstep=4 / cplxblur=20.0 / qblur=0.5 / ip_ratio=1.30 / pb_ratio=1.20 / aq=3:0.65 / aq-sensitivity=10.00 / aq-factor=1.00:1.00:1.00 / aq2=0 / aq3=0
Language : English
Default : Yes
Forced : No
Color range : Limited
Matrix coefficients : BT.709
DURATION : 03:53:14.231000000
NUMBER_OF_FRAMES : 335526
NUMBER_OF_BYTES : 21860296672
_STATISTICS_WRITING_APP : mkvmerge v8.3.0 ('Over the Horizon') 64bit
_STATISTICS_WRITING_DATE_UT : 2016-02-05 08:48:48
_STATISTICS_TAGS : BPS DURATION NUMBER_OF_FRAMES NUMBER_OF_BYTES

Audio #1
ID : 2
Format : AC-3
Format/Info : Audio Coding 3
Mode extension : CM (complete main)
Format settings, Endianness : Big
Codec ID : A_AC3
Duration : 3h 53mn
Bit rate mode : Constant
Bit rate : 192 Kbps
Channel(s) : 2 channels
Channel positions : Front: L R
Sampling rate : 48.0 KHz
Compression mode : Lossy
Stream size : 320 MiB (1%)
Title : Советский дубляж
Language : Russian
Default : Yes
Forced : No

Audio #2
ID : 3
Format : AC-3
Format/Info : Audio Coding 3
Mode extension : CM (complete main)
Format settings, Endianness : Big
Codec ID : A_AC3
Duration : 3h 53mn
Bit rate mode : Constant
Bit rate : 192 Kbps
Channel(s) : 2 channels
Channel positions : Front: L R
Sampling rate : 48.0 KHz
Compression mode : Lossy
Stream size : 320 MiB (1%)
Title : Советский дубляж+вставка дубляжа c BD CEE
Language : Russian
Default : No
Forced : No

Audio #3
ID : 4
Format : AC-3
Format/Info : Audio Coding 3
Mode extension : CM (complete main)
Format settings, Endianness : Big
Codec ID : A_AC3
Duration : 3h 53mn
Bit rate mode : Constant
Bit rate : 384 Kbps
Channel(s) : 6 channels
Channel positions : Front: L C R, Side: L R, LFE
Sampling rate : 48.0 KHz
Compression mode : Lossy
Stream size : 641 MiB (2%)
Title : Дубляж BD CEE
Language : Russian
Default : No
Forced : No

Audio #4
ID : 5
Format : DTS
Format/Info : Digital Theater Systems
Mode : 16
Format settings, Endianness : Big
Codec ID : A_DTS
Duration : 3h 53mn
Bit rate mode : Constant
Bit rate : 1 509 Kbps
Channel(s) : 6 channels
Channel positions : Front: L C R, Side: L R, LFE
Sampling rate : 48.0 KHz
Bit depth : 16 bits
Compression mode : Lossy
Stream size : 2.46 GiB (6%)
Title : Многоголосый, DVDMagic ранний
Language : Russian
Default : No
Forced : No

Audio #5
ID : 6
Format : DTS
Format/Info : Digital Theater Systems
Mode : 16
Format settings, Endianness : Big
Codec ID : A_DTS
Duration : 3h 53mn
Bit rate mode : Constant
Bit rate : 1 509 Kbps
Channel(s) : 6 channels
Channel positions : Front: L C R, Side: L R, LFE
Sampling rate : 48.0 KHz
Bit depth : 16 bits
Compression mode : Lossy
Stream size : 2.46 GiB (6%)
Title : Многоголосый, DVDMagic поздний
Language : Russian
Default : No
Forced : No

Audio #6
ID : 7
Format : AC-3
Format/Info : Audio Coding 3
Mode extension : CM (complete main)
Format settings, Endianness : Big
Codec ID : A_AC3
Duration : 3h 53mn
Bit rate mode : Constant
Bit rate : 192 Kbps
Channel(s) : 2 channels
Channel positions : Front: L R
Sampling rate : 48.0 KHz
Compression mode : Lossy
Stream size : 320 MiB (1%)
Title : Многоголосый, Варус Видео/ТК "Домашний"
Language : Russian
Default : No
Forced : No

Audio #7
ID : 8
Format : DTS
Format/Info : Digital Theater Systems
Mode : 16
Format settings, Endianness : Big
Codec ID : A_DTS
Duration : 3h 53mn
Bit rate mode : Constant
Bit rate : 755 Kbps
Channel(s) : 6 channels
Channel positions : Front: L C R, Side: L R, LFE
Sampling rate : 48.0 KHz
Bit depth : 24 bits
Compression mode : Lossy
Stream size : 1.23 GiB (3%)
Title : Многоголосый, неизвестный
Language : Russian
Default : No
Forced : No

Audio #8
ID : 9
Format : AC-3
Format/Info : Audio Coding 3
Mode extension : CM (complete main)
Format settings, Endianness : Big
Codec ID : A_AC3
Duration : 3h 53mn
Bit rate mode : Constant
Bit rate : 192 Kbps
Channel(s) : 2 channels
Channel positions : Front: L R
Sampling rate : 48.0 KHz
Compression mode : Lossy
Stream size : 320 MiB (1%)
Title : Авторский, А.Михалев - ранний перевод
Language : Russian
Default : No
Forced : No

Audio #9
ID : 10
Format : AC-3
Format/Info : Audio Coding 3
Mode extension : CM (complete main)
Format settings, Endianness : Big
Codec ID : A_AC3
Duration : 3h 53mn
Bit rate mode : Constant
Bit rate : 192 Kbps
Channel(s) : 2 channels
Channel positions : Front: L R
Sampling rate : 48.0 KHz
Compression mode : Lossy
Stream size : 320 MiB (1%)
Title : Авторский, А.Михалев - поздний перевод
Language : Russian
Default : No
Forced : No

Audio #10
ID : 11
Format : AC-3
Format/Info : Audio Coding 3
Mode extension : CM (complete main)
Format settings, Endianness : Big
Codec ID : A_AC3
Duration : 3h 53mn
Bit rate mode : Constant
Bit rate : 192 Kbps
Channel(s) : 2 channels
Channel positions : Front: L R
Sampling rate : 48.0 KHz
Compression mode : Lossy
Stream size : 320 MiB (1%)
Title : Авторский, А.Гаврилов
Language : Russian
Default : No
Forced : No

Audio #11
ID : 12
Format : AC-3
Format/Info : Audio Coding 3
Mode extension : CM (complete main)
Format settings, Endianness : Big
Codec ID : A_AC3
Duration : 3h 53mn
Bit rate mode : Constant
Bit rate : 192 Kbps
Channel(s) : 2 channels
Channel positions : Front: L R
Sampling rate : 48.0 KHz
Compression mode : Lossy
Stream size : 320 MiB (1%)
Title : Авторский, В.Горчаков
Language : Russian
Default : No
Forced : No

Audio #12
ID : 13
Format : DTS
Format/Info : Digital Theater Systems
Mode : 16
Format settings, Endianness : Big
Codec ID : A_DTS
Duration : 3h 53mn
Bit rate mode : Constant
Bit rate : 1 509 Kbps
Channel(s) : 6 channels
Channel positions : Front: L C R, Side: L R, LFE
Sampling rate : 48.0 KHz
Bit depth : 16 bits
Compression mode : Lossy
Stream size : 2.46 GiB (6%)
Title : Авторский, Ю.Живов
Language : Russian
Default : No
Forced : No

Audio #13
ID : 14
Format : DTS
Format/Info : Digital Theater Systems
Mode : 16
Format settings, Endianness : Big
Codec ID : A_DTS
Duration : 3h 53mn
Bit rate mode : Constant
Bit rate : 1 509 Kbps
Channel(s) : 6 channels
Channel positions : Front: L C R, Side: L R, LFE
Sampling rate : 48.0 KHz
Bit depth : 16 bits
Compression mode : Lossy
Stream size : 2.46 GiB (6%)
Title : Авторский, М.Иванов
Language : Russian
Default : No
Forced : No

Audio #14
ID : 15
Format : AC-3
Format/Info : Audio Coding 3
Mode extension : CM (complete main)
Format settings, Endianness : Big
Codec ID : A_AC3
Duration : 3h 53mn
Bit rate mode : Constant
Bit rate : 192 Kbps
Channel(s) : 2 channels
Channel positions : Front: L R
Sampling rate : 48.0 KHz
Compression mode : Lossy
Stream size : 320 MiB (1%)
Title : Авторский, В.Сонькин
Language : Russian
Default : No
Forced : No

Audio #15
ID : 16
Format : DTS
Format/Info : Digital Theater Systems
Mode : 16
Format settings, Endianness : Big
Codec ID : A_DTS
Duration : 3h 53mn
Bit rate mode : Constant
Bit rate : 1 509 Kbps
Channel(s) : 6 channels
Channel positions : Front: L C R, Side: L R, LFE
Sampling rate : 48.0 KHz
Bit depth : 16 bits
Compression mode : Lossy
Stream size : 2.46 GiB (6%)
Title : Авторский, Карпов
Language : Russian
Default : No
Forced : No

Audio #16
ID : 17
Format : AC-3
Format/Info : Audio Coding 3
Mode extension : CM (complete main)
Format settings, Endianness : Big
Codec ID : A_AC3
Duration : 3h 53mn
Bit rate mode : Constant
Bit rate : 384 Kbps
Channel(s) : 6 channels
Channel positions : Front: L C R, Side: L R, LFE
Sampling rate : 48.0 KHz
Compression mode : Lossy
Stream size : 641 MiB (2%)
Title : Многоголосый, ТК "Новий"
Language : Ukrainian
Default : No
Forced : No

Audio #17
ID : 18
Format : AC-3
Format/Info : Audio Coding 3
Mode extension : CM (complete main)
Format settings, Endianness : Big
Codec ID : A_AC3
Duration : 3h 53mn
Bit rate mode : Constant
Bit rate : 640 Kbps
Channel(s) : 6 channels
Channel positions : Front: L C R, Side: L R, LFE
Sampling rate : 48.0 KHz
Compression mode : Lossy
Stream size : 1.04 GiB (3%)
Language : English
Default : No
Forced : No

Audio #18
ID : 19
Format : AC-3
Format/Info : Audio Coding 3
Mode extension : CM (complete main)
Format settings, Endianness : Big
Codec ID : A_AC3
Duration : 3h 53mn
Bit rate mode : Constant
Bit rate : 192 Kbps
Channel(s) : 1 channel
Channel positions : Front: C
Sampling rate : 48.0 KHz
Compression mode : Lossy
Stream size : 320 MiB (1%)
Title : Original Mono Track
Language : English
Default : No
Forced : No

Audio #19
ID : 20
Format : AC-3
Format/Info : Audio Coding 3
Format profile : Dolby Digital
Mode extension : CM (complete main)
Format settings, Endianness : Big
Codec ID : A_AC3
Duration : 3h 53mn
Bit rate mode : Constant
Bit rate : 192 Kbps
Channel(s) : 2 channels
Channel positions : Front: L R
Sampling rate : 48.0 KHz
Compression mode : Lossy
Stream size : 320 MiB (1%)
Title : комментарии
Language : English
Default : No
Forced : No

Text #1
ID : 21
Format : UTF-8
Codec ID : S_TEXT/UTF8
Codec ID/Info : UTF-8 Plain Text
Language : Russian
Default : No
Forced : No

Text #2
ID : 22
Format : UTF-8
Codec ID : S_TEXT/UTF8
Codec ID/Info : UTF-8 Plain Text
Language : Ukrainian
Default : No
Forced : No

Text #3
ID : 23
Format : UTF-8
Codec ID : S_TEXT/UTF8
Codec ID/Info : UTF-8 Plain Text
Language : English
Default : No
Forced : No

Text #4
ID : 24
Format : UTF-8
Codec ID : S_TEXT/UTF8
Codec ID/Info : UTF-8 Plain Text
Title : SDH
Language : English
Default : No
Forced : No

Menu
00:00:00.000 : en:00:00:00.000
00:02:35.155 : en:00:02:35.155
00:06:46.906 : en:00:06:46.906
00:09:38.995 : en:00:09:38.995
00:15:25.424 : en:00:15:25.424
00:17:53.656 : en:00:17:53.656
00:21:42.176 : en:00:21:42.176
00:25:46.879 : en:00:25:46.879
00:28:35.005 : en:00:28:35.005
00:32:35.036 : en:00:32:35.036
00:35:39.346 : en:00:35:39.346
00:38:09.662 : en:00:38:09.662
00:42:22.248 : en:00:42:22.248
00:46:02.551 : en:00:46:02.551
00:48:47.091 : en:00:48:47.091
00:52:02.161 : en:00:52:02.161
00:55:26.406 : en:00:55:26.406
00:58:42.769 : en:00:58:42.769
01:01:42.449 : en:01:01:42.449
01:04:45.799 : en:01:04:45.799
01:10:41.863 : en:01:10:41.863
01:14:50.444 : en:01:14:50.444
01:17:06.914 : en:01:17:06.914
01:18:53.979 : en:01:18:53.979
01:23:06.732 : en:01:23:06.732
01:27:39.713 : en:01:27:39.713
01:31:47.293 : en:01:31:47.293
01:34:58.234 : en:01:34:58.234
01:38:03.377 : en:01:38:03.377
01:41:58.237 : en:01:41:58.237
01:44:12.955 : en:01:44:12.955
01:48:12.486 : en:01:48:12.486
01:49:42.951 : en:01:49:42.951
01:52:41.505 : en:01:52:41.505
01:57:31.419 : en:01:57:31.419
02:01:43.171 : en:02:01:43.171
02:03:47.337 : en:02:03:47.337
02:09:19.919 : en:02:09:19.919
02:11:21.207 : en:02:11:21.207
02:14:24.390 : en:02:14:24.390
02:19:39.871 : en:02:19:39.871
02:25:18.501 : en:02:25:18.501
02:29:54.402 : en:02:29:54.402
02:32:43.071 : en:02:32:43.071
02:37:26.687 : en:02:37:26.687
02:42:47.466 : en:02:42:47.466
02:46:00.534 : en:02:46:00.534
02:53:12.215 : en:02:53:12.215
02:57:12.747 : en:02:57:12.747
03:00:25.481 : en:03:00:25.481
03:05:08.848 : en:03:05:08.848
03:08:46.941 : en:03:08:46.941
03:12:17.693 : en:03:12:17.693
03:14:08.637 : en:03:14:08.637
03:18:53.004 : en:03:18:53.004
03:24:14.117 : en:03:24:14.117
03:29:55.583 : en:03:29:55.583
03:32:26.400 : en:03:32:26.400
03:35:29.708 : en:03:35:29.708
03:39:29.531 : en:03:39:29.531
03:41:43.582 : en:03:41:43.582
03:46:43.381 : en:03:46:43.381
03:48:56.932 : en:03:48:56.932


Приятного просмотра !!!


info [Профиль]  [ЛС] 

post 29-Июн-2016 22:05 (спустя 18 часов) [-]0[+]

Топик был перенесен из форума Анонсы в форум Классика зарубежного кино | Rips

koss555
 

AvgustoS

Стаж: 2 года 7 месяцев

Сообщений: 959

Предупреждений: 1

Австралия
Рейтинг

post 29-Июн-2016 23:30 (спустя 20 часов) [-]3[+]

[Цитировать] 

Советский дубляж божественный
info [Профиль]  [ЛС] 

zayatz

Пол: Пол:Муж

Стаж: 3 года 10 месяцев

Сообщений: 530

Россия
Рейтинг

post 01-Июл-2016 22:33 (спустя 1 день 23 часа) [-]0[+]

[Цитировать] 

AvgustoS писал(а):

Советский дубляж божественный
kolob_118
Вырезать все другие аудио дорожки, и размерчик будет что надо. kolob_117

_________________
info [Профиль]  [ЛС] 
Показать сообщения:    
Ответить на тему

Текущее время: 09-Дек 11:45

Часовой пояс: GMT + 4



Вы не можете начинать темы
Вы не можете отвечать на сообщения
Вы не можете редактировать свои сообщения
Вы не можете удалять свои сообщения
Вы не можете голосовать в опросах
Вы не можете прикреплять файлы к сообщениям
Вы не можете скачивать файлы