Ошибка

Красавица-воин Сейлор Мун Кристалл 3 / Bishoujo Senshi Sailor Moon Crystal III [TV] [1-2 из 13] [2016] [приключения, махо-сёдзё] [HDTV] [720p] [Профессиональный]

Ответить на тему
 
Автор Сообщение

NovA_JKE

Пол: Пол:Жен

Стаж: 6 лет 8 месяцев

Сообщений: 413

Антарктида
Рейтинг

post 18-Июн-2016 21:21 6[+]

[Цитировать] 

pic="http://savepic.ru/10126125.png"


Красавица-воин Сейлор Мун Кристалл (Сезон 3) | Bishoujo Senshi Sailor Moon Crystal (Season III)

Год выпуска: 2016
Страна: Япония
Жанр: приключения, махо-сёдзё
Тип: TV
Продолжительность: 13 эп. x 25 мин.
Студия:
Режиссер: Кон Тиаки
Автор оригинала: Такэути Наоко
Релиз / Перевод: студия Kansai
Озвучивание: многоголосое закадровое


Описание: Третий сезон станет адаптацией пятого и шестого томов оригинальной манги Pretty Guardian Sailor Moon Наоко Такеути и посвящён арке Death Busters.
Дополнительная информация:


Качество: HDTV
Формат: mp4
Видео: h.264; 8 bit; 1280x720; 23,976 fps; ~3207 kbps
Аудио:
  1. RU: AAC-LC 2.0, 48 kHz, ~128 kbps
Субтитры: нет
  1. Infinity 1: Premonition - First Part.
  2. Infinity 1: Premonition - Second Part.
    ...

Код:

Общее
Полное имя                               : P:\NovA_JKE\Аниме\!DL Sailor Moon Crystal III (Сейлор Мун Кристалл 3) [HDTV, Студия KANSAI]\[KANSAI] Sailor Moon Crystal Season III - 01 1280x720.mp4
Формат                                   : MPEG-4
Профиль формата                          : Base Media
Идентификатор кодека                     : isom (isom/avc1/iso6)
Размер файла                             : 586 Мбайт
Продолжительность                        : 24 м.
Режим общего битрейта                    : Переменный
Общий поток                              : 3345 Кбит/сек
Дата кодирования                         : UTC 2016-06-17 17:15:02
Дата пометки                             : UTC 2016-06-17 17:15:02
Программа кодирования                    : Yamb 2.1.0.0 [http://yamb.unite-video.com]

Видео
Идентификатор                            : 1
Формат                                   : AVC
Формат/Информация                        : Advanced Video Codec
Профиль формата                          : High@L4.1
Параметр CABAC формата                   : Да
Параметр ReFrames формата                : 4 кадра
Идентификатор кодека                     : avc1
Идентификатор кодека/Информация          : Advanced Video Coding
Продолжительность                        : 24 м.
Битрейт                                  : 3207 Кбит/сек
Максимальный битрейт                     : 19,6 Мбит/сек
Ширина                                   : 1280 пикселей
Высота                                   : 720 пикселей
Соотношение сторон                       : 16:9
Режим частоты кадров                     : Постоянный
Частота кадров                           : 23,976 (24000/1001) кадра/сек
Цветовое пространство                    : YUV
Субдискретизация насыщенности            : 4:2:0
Битовая глубина                          : 8 бит
Тип развёртки                            : Прогрессивная
Бит/(Пиксели*Кадры)                      : 0.145
Размер потока                            : 562 Мбайт (96%)
Заголовок                                : h264:fps=23.976@GPAC0.5.2-DEV-rev248-g39d5978-master
Библиотека кодирования                   : x264 core 129 r2245+729M 1a52e03
Настройки программы                      : cabac=1 / ref=4 / deblock=1:1:-1 / analyse=0x3:0x113 / me=umh / subme=9 / psy=1 / fade_compensate=0.00 / psy_rd=1.00:0.00 / mixed_ref=1 / me_range=24 / chroma_me=1 / trellis=2 / 8x8dct=1 / cqm=0 / deadzone=21,11 / fast_pskip=1 / chroma_qp_offset=-2 / threads=8 / lookahead_threads=1 / sliced_threads=0 / nr=0 / decimate=1 / interlaced=0 / bluray_compat=0 / constrained_intra=0 / fgo=0 / bframes=9 / b_pyramid=2 / b_adapt=2 / b_bias=0 / direct=1 / weightb=1 / open_gop=0 / weightp=2 / keyint=240 / keyint_min=24 / scenecut=40 / intra_refresh=0 / rc=crf / mbtree=0 / crf=17.5 / qcomp=0.72 / qpmin=0 / qpmax=69 / qpstep=4 / ip_ratio=1.40 / pb_ratio=1.30 / aq=1:0.85
Дата кодирования                         : UTC 2016-06-17 17:15:02
Дата пометки                             : UTC 2016-06-17 17:15:09
Цветовой диапазон                        : Limited
Основные цвета                           : BT.709
Характеристики трансфера                 : BT.709
Коэффициенты матрицы                     : BT.709

Аудио
Идентификатор                            : 2
Формат                                   : AAC
Формат/Информация                        : Advanced Audio Codec
Профиль формата                          : LC
Идентификатор кодека                     : 40
Продолжительность                        : 24 м.
Вид битрейта                             : Переменный
Битрейт                                  : 132 Кбит/сек
Максимальный битрейт                     : 189 Кбит/сек
Каналы                                   : 2 канала
Расположение каналов                     : Front: L R
Частота                                  : 48,0 КГц
Частота кадров                           : 46,875 кадров/сек (1024 spf)
Метод сжатия                             : С потерями
Размер потока                            : 23,4 Мбайт (4%)
Заголовок                                : Kansai
Дата кодирования                         : UTC 2016-06-17 17:15:08
Дата пометки                             : UTC 2016-06-17 17:15:09

Обновляемая раздача, серии добавляются по мере их готовности.
info [Профиль]  [ЛС] 

MifReal

Стаж: 3 года 7 месяцев

Сообщений: 28

Рейтинг

post 19-Июн-2016 13:25 (спустя 16 часов) [-]0[+]

[Цитировать] 

Всмысле сезон 3???? А где Сезон 2? (или второй показали сразу с первым, и он начался, когда появилась Чибиуса?)
info [Профиль]  [ЛС] 

NovA_JKE

Пол: Пол:Жен

Стаж: 6 лет 8 месяцев

Сообщений: 413

Антарктида
Рейтинг

post 19-Июн-2016 16:46 (спустя 3 часа) [-]0[+]

[Цитировать] 

MifReal писал(а):

...(или второй показали сразу с первым, и он начался, когда появилась Чибиуса?)
все верно.
info [Профиль]  [ЛС] 
Показать сообщения:    
Ответить на тему

Текущее время: 03-Дек 23:40

Часовой пояс: GMT + 4



Вы не можете начинать темы
Вы не можете отвечать на сообщения
Вы не можете редактировать свои сообщения
Вы не можете удалять свои сообщения
Вы не можете голосовать в опросах
Вы не можете прикреплять файлы к сообщениям
Вы не можете скачивать файлы