Ошибка

Зверополис / Zootopia (Байрон Ховард, Рич Мур, Джаред Буш) [2016 г., мультфильм, боевик, комедия, криминал, приключения, семейный, HDRip] [iTunes]

Ответить на тему
 
Автор Сообщение

CrazySmall

Пол: Пол:Муж

Стаж: 6 лет 9 месяцев

Сообщений: 282

СССР
Рейтинг

post 16-Июн-2016 19:57 3[+]

[Цитировать] 

Зверополис / Zootopia

Год выпуска: 2016
Страна: США
Жанр: мультфильм, боевик, комедия, криминал, приключения, семейный
Продолжительность: 01:48:32
Перевод: Профессиональный (полное дублирование) [iTunes]
Язык субтитров: нет

Режиссер:
  • Байрон Ховард, Рич Мур, Джаред Буш


В ролях:
  • Джиннифер Гудвин, Джейсон Бейтмен, Идрис Эльба, Дженни Слейт, Нейт Торренс, Бонни Хант, Дон Лейк, Томми Чонг, Дж.К. Симмонс, Октавия Спенсер, Алан Тьюдик, Шакира, Рэймонд С. Перси, Делла Саба, Морис ЛаМарш, Фуския, Джон Ди Маджио, Кэти Лоус, Джесси Корти, Том ’Тайни’ Листер мл.


Описание: Добро пожаловать в Зверополис — современный город, населенный самыми разными животными, от огромных слонов до крошечных мышек. Зверополис разделен на районы, полностью повторяющие естественную среду обитания разных жителей — здесь есть и элитный район Площадь Сахары и неприветливый Тундратаун. В этом городе появляется новый офицер полиции, жизнерадостная зайчиха Джуди Хоппс, которая с первых дней работы понимает, как сложно быть маленькой и пушистой среди больших и сильных полицейских. Джуди хватается за первую же возможность проявить себя, несмотря на то, что ее партнером будет болтливый хитрый лис Ник Уайлд. Вдвоем им предстоит раскрыть сложное дело, от которого будет зависеть судьба всех обитателей Зверополиса.


Качество: HDRip [iTunes]
Формат: AVI
Видео кодек: XviD
Аудио кодек: AC3
Видео: 720х304, 1409 kbps, 23,976 fps
Аудио: 6 ch, 384 kbps, 48 khz
Формат : AVI
Формат/Информация : Audio Video Interleave
Размер файла : 1,37 Гбайт
Продолжительность : 1 ч. 48 м.
Общий поток : 1801 Кбит/сек

Видео
Идентификатор : 0
Формат : MPEG-4 Visual
Профиль формата : Advanced Simple@L5
Параметр BVOP формата : 1
Параметр QPel формата : Нет
Параметр GMC формата : Без точки перехода
Параметр матрицы формата : Default (MPEG)
Идентификатор кодека : XVID
Идентификатор кодека/Подсказка : XviD
Продолжительность : 1 ч. 48 м.
Битрейт : 1409 Кбит/сек
Ширина : 720 пикселей
Высота : 304 пикселя
Соотношение сторон : 2,35:1
Частота кадров : 23,976 (23976/1000) кадра/сек
Цветовое пространство : YUV
Субдискретизация насыщенности : 4:2:0
Битовая глубина : 8 бит
Тип развёртки : Прогрессивная
Метод сжатия : С потерями
Бит/(Пиксели*Кадры) : 0.269
Размер потока : 1,07 Гбайт (78%)
Библиотека кодирования : XviD 1.2.1 (UTC 2008-12-04)

Аудио
Идентификатор : 1
Формат : AC-3
Формат/Информация : Audio Coding 3
Расширение режима : CM (complete main)
Параметр Endianness формата : Big
Идентификатор кодека : 2000
Продолжительность : 1 ч. 48 м.
Вид битрейта : Постоянный
Битрейт : 384 Кбит/сек
Каналы : 6 каналов
Расположение каналов : Front: L C R, Side: L R, LFE
Частота : 48,0 КГц
Частота кадров : 31,250 кадров/сек (1536 spf)
Метод сжатия : С потерями
Размер потока : 298 Мбайт (21%)
Выравнивание : Соединение по промежуткам
Продолжительность промежутка : 64 мс. (1,53 видеокадра)
Время предзагрузки промежутка : 192 мс.
Заголовок : Zootopia_track7_fixed
info [Профиль]  [ЛС] 

JBar

Стаж: 6 лет 9 месяцев

Сообщений: 371

Рейтинг

post 18-Июн-2016 00:53 (спустя 1 день 4 часа) [-]-1[+]

[Цитировать] 

мульт классный всем рекомендую
info [Профиль]  [ЛС] 

Noinimod

Пол: Пол:Муж

Стаж: 4 года 11 месяцев

Сообщений: 301

Россия
Рейтинг

post 19-Июн-2016 21:41 (спустя 1 день 20 часов) [-]0[+]

[Цитировать] 

Для совсем маленьких не пойдёт, где-то от 8-9-ти лет. Взрослый мультик. Юмора маловато.

_________________
И к нам придет еще пора
Покоя, радости, достатка,
Но к той поре на наших пятках
Напишут синим номера.


Quoth the raven "Newermore" as if his soul in that one word he did outpour
info [Профиль]  [ЛС] 

post 21-Июл-2016 11:06 (спустя 1 месяц 1 день) [-]0[+]

Топик был перенесен из форума Новинки 2015-2016 (Rips) в форум Зарубежные полнометражные мультфильмы

Formula
 
Показать сообщения:    
Ответить на тему

Текущее время: 08-Дек 18:29

Часовой пояс: GMT + 4



Вы не можете начинать темы
Вы не можете отвечать на сообщения
Вы не можете редактировать свои сообщения
Вы не можете удалять свои сообщения
Вы не можете голосовать в опросах
Вы не можете прикреплять файлы к сообщениям
Вы не можете скачивать файлы