Ошибка

Харлей Дэвидсон и Ковбой Мальборо / Harley Davidson and the Marlboro Man (Саймон Уинсер) [1991 г., боевик, триллер, драма, криминал, BDRemux 1080p]

Ответить на тему
 
Автор Сообщение

RedBull4293

Пол: Пол:Муж

Стаж: 3 года 10 месяцев

Сообщений: 42

Россия
Рейтинг

post 22-Май-2016 11:31 3[+]

[Цитировать] 

pic="http://i77.fastpic.ru/big/2016/0522/af/158913774a32cb460319bc561e798faf.jpg"
Харлей Дэвидсон и Ковбой Мальборо / Harley Davidson and the Marlboro Man
«Когда крутым парням приходится туго, они берут закон в свои руки»

Год выпуска: 1991
Страна: США
Жанр: боевик, триллер, драма, криминал
Продолжительность: 01:38:27
Перевод: Профессиональный (многоголосый закадровый) [Варус Видео],Профессиональный (многоголосый закадровый) [Лазер Видео] (Александр Новиков, Алексей Мясников и Марина Тарасова),Профессиональный (многоголосый, закадровый) [НТВ] (А. Новиков, А. Груздев, А. Борзунов и Е. Борзунова),Профессиональный (двухголосый закадровый) [НТВ+] (Н. Прозоровский и О. Голованова),Профессиональный (двухголосый закадровый) [НТВ+] (И. Тарадайкин и Н. Казначеева),Профессиональный (двухголосый закадровый) [Фортуна Фильм],Профессиональный (двухголосый закадровый) [ОРТ],Профессиональный (двухголосый закадровый),Авторский (одноголосый закадровый) [Ю.Живов],Профессиональный (многоголосый, закадровый) [Карусель/Союз],Авторский (одноголосый закадровый) [Goblin],Авторский (одноголосый закадровый) [А.Михалёв]
Субтитры: Русские ,английские
Режиссер: Саймон Уинсер
В ролях: Микки Рурк, Дон Джонсон, Челси Филд, Дэниэл Болдуин, Джанкарло Эспозито, Ванесса Уильямс, Роберт Гинти, Тиа Каррере, Джулиус Харрис, Элой Касадос
Описание:
Ренегат Микки Рурк и невероятно талантливый Дон Джонсон с безудержной мощью и непередаваемым юмором сыграли грубоватых и одновременно сердечных «Робин Гудов» нашего времени. В беззаконном мире конца 80-х некий банк грубо пытается отнять принадлежащий бывшему рокеру бар.

Бродяги Харли Дэвидсон и Ковбой Марльборо решили помочь своему старому другу и ограбить инкассаторов банка. Однако в бронемашине оказываются не деньги, а наркотики. Теперь Рурка и Джонсона преследует банда прихвостней коррумпированного банкира. Скоростные мотоциклы, динамичное действие и мощное современное оружие составляют взрывоопасный рецепт этого футуристического приключенческого фильма.
Рейтинг Кинопоиск: 7.656
Рейтинг IMDB: 6,0/10
Качество: BDRemux 1080p
Формат: mkv
Видео кодек: H264
Аудио кодек: AC3
Аудио 1: AC-3, 2.0, 48 kHz, 192 kbps, 16-bit - Профессиональный (многоголосый закадровый) - Варус Видео
Аудио 2: AC-3, 2.0, 48 kHz, 192 kbps, 16-bit - Профессиональный (многоголосый закадровый) - Лазер Видео (Александр Новиков, Алексей Мясников и Марина Тарасова)
Аудио 3: AC-3, 2.0, 48 kHz, 192 kbps, 16-bit - Профессиональный (многоголосый закадровый) - НТВ (А. Новиков, А. Груздев, А. Борзунов и Е. Борзунова)
Аудио 4: AC-3, 2.0, 48 kHz, 384 kbps - Профессиональный (двухголосый закадровый) - НТВ+ (Н. Прозоровский и О. Голованова)
Аудио 5: AC-3, 2.0, 48 kHz, 192 kbps, 16-bit - Профессиональный (двухголосый закадровый) - НТВ+ (И. Тарадайкин и Н. Казначеева)
Аудио 6: AC-3, 2.0, 48 kHz, 192 kbps, 16-bit - Профессиональный (двухголосый закадровый) - Фортуна Фильм
Аудио 7: AC-3, 2.0, 48 kHz, 192 kbps, 16-bit - Профессиональный (двухголосый закадровый) - ОРТ
Аудио 8: AC-3, 2.0, 48 kHz, 192 kbps, 16-bit - Профессиональный (двухголосый закадровый)
Аудио 9: AC-3, 2.0, 48 kHz, 192 kbps, 16-bit - Так треба продакшн Ukrainian
Аудио 10: AC-3, 2.0, 48 kHz, 192 kbps, 16-bit - 2+2 Ukrainian
Аудио 11: AC-3, 2.0, 48 kHz, 192 kbps, 16-bit - Авторский (одноголосый закадровый) - Ю.Живов
Аудио 12: DTS-HD Master Audio, 2107 kbps, 48 kHz, 24-bit - Профессиональный (многоголосый закадровый) - Карусель/Союз
Аудио 13: DTS-HD Master Audio, 2095 kbps, 48 kHz, 24-bit - Авторский (одноголосый закадровый) - Goblin
Аудио 14: DTS-HD Master Audio, 2099 kbps, 48 kHz, 24-bit - Профессиональный (двухголосый закадровый) - А.Михалёв
Аудио 15: DTS-HD Master Audio, 2085 kbps, 48 kHz, 24-bit - English

Общее

Уникальный идентификатор : 180910605473275628888125006997205474456 (0x881A1D7FF6B3417F922AF0F83D3EDC98)
Полное имя : C:\OGO2\Downloads\Фильмы\Harley Davidson and the Marlboro Man.mkv
Формат : Matroska
Версия формата : Version 4 / Version 2
Размер файла : 22,4 Гбайт
Продолжительность : 1 ч. 38 м.
Режим общего битрейта : Переменный
Общий поток : 32,6 Мбит/сек
Название фильма : Harley Davidson and the Marlboro Man_1991г_Donnie Wayne_[Don]_Johnson & Philip Andre Rourke, Jr.
Дата кодирования : UTC 2015-08-28 14:45:28
Программа кодирования : mkvmerge v6.9.1 ('Blue Panther') 64bit built on Apr 18 2014 18:23:38
Библиотека кодирования : libebml v1.3.0 + libmatroska v1.4.1

Видео

Идентификатор : 1
Формат : AVC
Формат/Информация : Advanced Video Codec
Профиль формата : High@L4.1
Параметр CABAC формата : Да
Параметр ReFrames формата : 4 кадра
Идентификатор кодека : V_MPEG4/ISO/AVC
Продолжительность : 1 ч. 38 м.
Вид битрейта : Переменный
Максимальный битрейт : 25,0 Мбит/сек
Ширина : 1920 пикселей
Высота : 1080 пикселей
Соотношение сторон : 16:9
Режим частоты кадров : Постоянный
Частота кадров : 23,976 (24000/1001) кадра/сек
Цветовое пространство : YUV
Субдискретизация насыщенности : 4:2:0
Битовая глубина : 8 бит
Тип развёртки : Прогрессивная
Заголовок : Harley Davidson and the Marlboro Man_1991г_Donnie Wayne_[Don]_Johnson & Philip Andre Rourke, Jr.
Язык : English
Default : Да
Forced : Нет

Аудио #1

Идентификатор : 2
Формат : AC-3
Формат/Информация : Audio Coding 3
Расширение режима : CM (complete main)
Параметр Endianness формата : Big
Идентификатор кодека : A_AC3
Продолжительность : 1 ч. 38 м.
Вид битрейта : Постоянный
Битрейт : 192 Кбит/сек
Каналы : 2 канала
Расположение каналов : Front: L R
Частота : 48,0 КГц
Частота кадров : 31,250 кадров/сек (1536 spf)
Метод сжатия : С потерями
Размер потока : 135 Мбайт (1%)
Заголовок : |MVO, Варус Видео|
Язык : Russian
Default : Да
Forced : Нет

Аудио #2

Идентификатор : 3
Формат : AC-3
Формат/Информация : Audio Coding 3
Расширение режима : CM (complete main)
Параметр Endianness формата : Big
Идентификатор кодека : A_AC3
Продолжительность : 1 ч. 38 м.
Вид битрейта : Постоянный
Битрейт : 192 Кбит/сек
Каналы : 2 канала
Расположение каналов : Front: L R
Частота : 48,0 КГц
Частота кадров : 31,250 кадров/сек (1536 spf)
Метод сжатия : С потерями
Размер потока : 135 Мбайт (1%)
Заголовок : |MVO, Лазер Видео|
Язык : Russian
Default : Нет
Forced : Нет

Аудио #3

Идентификатор : 4
Формат : AC-3
Формат/Информация : Audio Coding 3
Расширение режима : CM (complete main)
Параметр Endianness формата : Big
Идентификатор кодека : A_AC3
Продолжительность : 1 ч. 38 м.
Вид битрейта : Постоянный
Битрейт : 192 Кбит/сек
Каналы : 2 канала
Расположение каналов : Front: L R
Частота : 48,0 КГц
Частота кадров : 31,250 кадров/сек (1536 spf)
Метод сжатия : С потерями
Размер потока : 135 Мбайт (1%)
Заголовок : |MVO, НТВ|_(А. Новиков, А. Груздев, А. Борзунов и Е. Борзунова)_
Язык : Russian
Default : Нет
Forced : Нет

Аудио #4

Идентификатор : 5
Формат : AC-3
Формат/Информация : Audio Coding 3
Расширение режима : CM (complete main)
Параметр Endianness формата : Big
Идентификатор кодека : A_AC3
Продолжительность : 1 ч. 38 м.
Вид битрейта : Постоянный
Битрейт : 384 Кбит/сек
Каналы : 2 канала
Расположение каналов : Front: L R
Частота : 48,0 КГц
Частота кадров : 31,250 кадров/сек (1536 spf)
Метод сжатия : С потерями
Размер потока : 270 Мбайт (1%)
Заголовок : |DVO, НТВ+|_(Н. Прозоровский и О. Голованова)_
Язык : Russian
Default : Нет
Forced : Нет

Аудио #5

Идентификатор : 6
Формат : AC-3
Формат/Информация : Audio Coding 3
Профиль формата : Dolby Digital
Расширение режима : CM (complete main)
Параметр Endianness формата : Big
Идентификатор кодека : A_AC3
Продолжительность : 1 ч. 38 м.
Вид битрейта : Постоянный
Битрейт : 192 Кбит/сек
Каналы : 2 канала
Расположение каналов : Front: L R
Частота : 48,0 КГц
Частота кадров : 31,250 кадров/сек (1536 spf)
Метод сжатия : С потерями
Размер потока : 135 Мбайт (1%)
Заголовок : |DVO, НТВ+|_(И. Тарадайкин и Н. Казначеева)_
Язык : Russian
Default : Нет
Forced : Нет

Аудио #6

Идентификатор : 7
Формат : AC-3
Формат/Информация : Audio Coding 3
Расширение режима : CM (complete main)
Параметр Endianness формата : Big
Идентификатор кодека : A_AC3
Продолжительность : 1 ч. 38 м.
Вид битрейта : Постоянный
Битрейт : 192 Кбит/сек
Каналы : 2 канала
Расположение каналов : Front: L R
Частота : 48,0 КГц
Частота кадров : 31,250 кадров/сек (1536 spf)
Метод сжатия : С потерями
Размер потока : 135 Мбайт (1%)
Заголовок : |DVO, Фортуна Фильм|
Язык : Russian
Default : Нет
Forced : Нет

Аудио #7

Идентификатор : 8
Формат : AC-3
Формат/Информация : Audio Coding 3
Расширение режима : CM (complete main)
Параметр Endianness формата : Big
Идентификатор кодека : A_AC3
Продолжительность : 1 ч. 38 м.
Вид битрейта : Постоянный
Битрейт : 192 Кбит/сек
Каналы : 2 канала
Расположение каналов : Front: L R
Частота : 48,0 КГц
Частота кадров : 31,250 кадров/сек (1536 spf)
Метод сжатия : С потерями
Размер потока : 135 Мбайт (1%)
Заголовок : |DVO, ОРТ|
Язык : Russian
Default : Нет
Forced : Нет

Аудио #8

Идентификатор : 9
Формат : AC-3
Формат/Информация : Audio Coding 3
Расширение режима : CM (complete main)
Параметр Endianness формата : Big
Идентификатор кодека : A_AC3
Продолжительность : 1 ч. 38 м.
Вид битрейта : Постоянный
Битрейт : 192 Кбит/сек
Каналы : 2 канала
Расположение каналов : Front: L R
Частота : 48,0 КГц
Частота кадров : 31,250 кадров/сек (1536 spf)
Метод сжатия : С потерями
Размер потока : 135 Мбайт (1%)
Заголовок : |DVO|
Язык : Russian
Default : Нет
Forced : Нет

Аудио #9

Идентификатор : 10
Формат : AC-3
Формат/Информация : Audio Coding 3
Расширение режима : CM (complete main)
Параметр Endianness формата : Big
Идентификатор кодека : A_AC3
Продолжительность : 1 ч. 38 м.
Вид битрейта : Постоянный
Битрейт : 192 Кбит/сек
Каналы : 2 канала
Расположение каналов : Front: L R
Частота : 48,0 КГц
Частота кадров : 31,250 кадров/сек (1536 spf)
Метод сжатия : С потерями
Размер потока : 135 Мбайт (1%)
Заголовок : |MVO, Так треба продакшн|
Язык : Ukrainian
Default : Нет
Forced : Нет

Аудио #10

Идентификатор : 11
Формат : AC-3
Формат/Информация : Audio Coding 3
Расширение режима : CM (complete main)
Параметр Endianness формата : Big
Идентификатор кодека : A_AC3
Продолжительность : 1 ч. 38 м.
Вид битрейта : Постоянный
Битрейт : 192 Кбит/сек
Каналы : 2 канала
Расположение каналов : Front: L R
Частота : 48,0 КГц
Частота кадров : 31,250 кадров/сек (1536 spf)
Метод сжатия : С потерями
Размер потока : 135 Мбайт (1%)
Заголовок : |DVO, 2+2|
Язык : Ukrainian
Default : Нет
Forced : Нет

Аудио #11

Идентификатор : 12
Формат : AC-3
Формат/Информация : Audio Coding 3
Расширение режима : CM (complete main)
Параметр Endianness формата : Big
Идентификатор кодека : A_AC3
Продолжительность : 1 ч. 38 м.
Вид битрейта : Постоянный
Битрейт : 192 Кбит/сек
Каналы : 2 канала
Расположение каналов : Front: L R
Частота : 48,0 КГц
Частота кадров : 31,250 кадров/сек (1536 spf)
Метод сжатия : С потерями
Размер потока : 135 Мбайт (1%)
Заголовок : |Живов, Юрий Викторович|
Язык : Russian
Default : Нет
Forced : Нет

Аудио #12

Идентификатор : 13
Формат : DTS
Формат/Информация : Digital Theater Systems
Профиль формата : MA / Core
Режим : 16
Параметр Endianness формата : Big
Идентификатор кодека : A_DTS
Продолжительность : 1 ч. 38 м.
Вид битрейта : Переменный / Постоянный
Битрейт : Неизвестно / 1509 Кбит/сек
Каналы : 2 канала
Расположение каналов : Front: L R
Частота : 48,0 КГц
Частота кадров : 93,750 кадра/сек (512 spf)
Битовая глубина : 24 бит
Метод сжатия : Без потерь / Lossy
Заголовок : |MVO, Карусель/Союз|
Язык : Russian
Default : Нет
Forced : Нет

Аудио #13

Идентификатор : 14
Формат : DTS
Формат/Информация : Digital Theater Systems
Профиль формата : MA / Core
Режим : 16
Параметр Endianness формата : Big
Идентификатор кодека : A_DTS
Продолжительность : 1 ч. 38 м.
Вид битрейта : Переменный / Постоянный
Битрейт : Неизвестно / 1509 Кбит/сек
Каналы : 2 канала
Расположение каналов : Front: L R
Частота : 48,0 КГц
Частота кадров : 93,750 кадра/сек (512 spf)
Битовая глубина : 24 бит
Метод сжатия : Без потерь / Lossy
Заголовок : |Пучков, Дмитрий Юрьевич|
Язык : Russian
Default : Нет
Forced : Нет

Аудио #14

Идентификатор : 15
Формат : DTS
Формат/Информация : Digital Theater Systems
Профиль формата : MA / Core
Режим : 16
Параметр Endianness формата : Big
Идентификатор кодека : A_DTS
Продолжительность : 1 ч. 38 м.
Вид битрейта : Переменный / Постоянный
Битрейт : Неизвестно / 1509 Кбит/сек
Каналы : 2 канала
Расположение каналов : Front: L R
Частота : 48,0 КГц
Частота кадров : 93,750 кадра/сек (512 spf)
Битовая глубина : 24 бит
Метод сжатия : Без потерь / Lossy
Заголовок : |Михалёв, Алексей Михайлович|
Язык : Russian
Default : Нет
Forced : Нет

Аудио #15

Идентификатор : 16
Формат : DTS
Формат/Информация : Digital Theater Systems
Профиль формата : MA / Core
Режим : 16
Параметр Endianness формата : Big
Идентификатор кодека : A_DTS
Продолжительность : 1 ч. 38 м.
Вид битрейта : Переменный / Постоянный
Битрейт : Неизвестно / 1509 Кбит/сек
Каналы : 2 канала
Расположение каналов : Front: L R
Частота : 48,0 КГц
Частота кадров : 93,750 кадра/сек (512 spf)
Битовая глубина : 24 бит
Метод сжатия : Без потерь / Lossy
Заголовок : |original|
Язык : English
Default : Нет
Forced : Нет

Текст #1

Идентификатор : 17
Формат : UTF-8
Идентификатор кодека : S_TEXT/UTF8
Идентификатор кодека/Информация : UTF-8 Plain Text
Заголовок : full
Язык : Russian
Default : Нет
Forced : Нет

Текст #2

Идентификатор : 18
Формат : UTF-8
Идентификатор кодека : S_TEXT/UTF8
Идентификатор кодека/Информация : UTF-8 Plain Text
Заголовок : Пучков, Дмитрий Юрьевич
Язык : Russian
Default : Нет
Forced : Нет

Текст #3

Идентификатор : 19
Формат : UTF-8
Идентификатор кодека : S_TEXT/UTF8
Идентификатор кодека/Информация : UTF-8 Plain Text
Заголовок : full
Язык : English
Default : Нет
Forced : Нет

Текст #4

Идентификатор : 20
Формат : UTF-8
Идентификатор кодека : S_TEXT/UTF8
Идентификатор кодека/Информация : UTF-8 Plain Text
Заголовок : SDH_full
Язык : English
Default : Нет
Forced : Нет

Меню

00:00:00.000 : :Chapter 01
00:04:22.720 : :Chapter 02
00:15:50.032 : :Chapter 03
00:27:17.049 : :Chapter 04
00:45:10.416 : :Chapter 05
00:58:38.847 : :Chapter 06
01:12:13.078 : :Chapter 07
01:34:04.055 : :Chapter 08
info [Профиль]  [ЛС] 

Умный Веник

Пол: Пол:Муж

Стаж: 7 лет 3 месяца

Сообщений: 248

Украина
Рейтинг

post 22-Май-2016 16:06 (спустя 4 часа) [-]0[+]

[Цитировать] 

Внушительная подборка дорожек! Но для классного фильма из эпохи видеосалонов не жалко.

_________________
Я устал от бессмысленной свободы...
info [Профиль]  [ЛС] 

King HuhricK

Пол: Пол:Муж

Стаж: 6 лет 9 месяцев

Сообщений: 119

Кот-д’Ивуар
Рейтинг

post 22-Май-2016 16:46 (спустя 39 минут) [-]5[+]

[Цитировать] 

Фильм-эпоха. Легендарный!!! Ностальгия из 90-х! kolob_102 kolob_117

_________________
info [Профиль]  [ЛС] 

KAMEHb

Стаж: 5 лет 4 месяца

Сообщений: 82

Предупреждений: 1

Россия
Рейтинг

post 22-Май-2016 17:43 (спустя 56 минут) [-]6[+]

[Цитировать] 

Знаешь, каждая пуля и каждый выстрел из этого пистолета стоит 2 доллара.
А у них денег - куры не клюют kolob_149
info [Профиль]  [ЛС] 

de_N1ro

Стаж: 7 лет 7 месяцев

Сообщений: 18

Россия
Рейтинг

post 22-Май-2016 23:02 (спустя 5 часов) [-]1[+]

[Цитировать] 

Перевод Михалева-самый самый лучший!!!!Спасибо!!!!
info [Профиль]  [ЛС] 

pitbool

Пол: Пол:Муж

Стаж: 4 года 11 месяцев

Сообщений: 44

Рейтинг

post 23-Май-2016 18:02 (спустя 19 часов) [-]2[+]

[Цитировать] 

Мой отец, прежде чем покинул этот говённый мир......

Михалёв всё-таки придавал колориту фильмам. Спасибо за наше детство)
info [Профиль]  [ЛС] 

topsex

Пол: Пол:Муж

Стаж: 6 лет 8 месяцев

Сообщений: 415

СССР
Рейтинг

post 24-Май-2016 00:09 (спустя 6 часов) [-]0[+]

[Цитировать] 

Фильм совсем не детский, но правда в 90-х и детство было суровое...

_________________
i5@4.0Ghz, 8Gb RAM, Radeon R9 280x 3Gb, SSD, W8.1 x64 \ Xbox 360
info [Профиль]  [ЛС] 
Показать сообщения:    
Ответить на тему

Текущее время: 09-Дек 00:10

Часовой пояс: GMT + 4



Вы не можете начинать темы
Вы не можете отвечать на сообщения
Вы не можете редактировать свои сообщения
Вы не можете удалять свои сообщения
Вы не можете голосовать в опросах
Вы не можете прикреплять файлы к сообщениям
Вы не можете скачивать файлы