Ошибка

Волки и овцы: бе-е-е-зумное превращение (Максим Волков, Андрей Галат) [2016, мультфильм, семейный, комедия, приключения, WEB-DL 1080p]

Ответить на тему
 
Автор Сообщение

BZzz

Пол: Пол:Муж

Стаж: 5 лет 1 месяц

Сообщений: 3647

Россия
Рейтинг

post 18-Май-2016 00:10 4[+]

[Цитировать] 

Волки и овцы: бе-е-е-зумное превращение
«Ты можешь быть кем угодно. Главное – оставаться собой!»




Год выпуска: 2016
Страна: Россия
Жанр: мультфильм, семейный, комедия, приключения
Продолжительность: 01:24:42
Перевод: Оригинал [цифровая лицензия iTunes]

Режиссер: Максим Волков, Андрей Галат

В ролях: Александр Петров (Серый, озвучка), Елизавета Боярская (Бьянка, озвучка), Сергей Безруков (Магра, озвучка), Екатерина Иванчикова (Лира, озвучка), Юрий Гальцев (Зико, озвучка), Андрей Рожков (Клиф, озвучка), Татьяна Шитова (Мами, озвучка), Диомид Виноградов (Мос / Айк, озвучка), Андрей Бархударов (озвучка), Дмитрий Филимонов (озвучка), Никита Прозоровский (озвучка), Ирина Виленкина (озвучка)


Описание: Любимцу стаи, молодому и беззаботному волку Серому невдомек, что скоро он окажется чужим среди своих друзей. Претендуя на роль вожака стаи и на руку (вернее, лапу) и сердце самой красивой волчицы Бьянки, Серый продолжает дурачиться и устраивать розыгрыши над сородичами. Все переворачивается с ног на голову, когда он решает изменить себя с помощью волшебного зелья. Чудо действительно происходит: Серый превращается в барана! Опасаясь за свою, теперь овечью, шкуру, Серый сбегает от волков и поселяется в деревне овец.Теперь Серому предстоит не только вернуть доверие возлюбленной и стаи, но и свой прежний облик. Но как это сделать, если у тебя есть всего три дня, да еще рога и копыта?

Сборы в России: $1 966 673



Качество: WEB-DL 1080p
Формат: MKV
Видео кодек: AVC
Аудио кодек: AC3
Видео: 1920x804 (2.40:1), 24.000 fps, High@L4.0, 4 430 Kbps
Аудио #1: AC3, 384 Kbps, 48.0 KHz, 6 ch
General
Unique ID : 204484625804727505985440412539152909495 (0x99D64E7041EF25E69AF9DC1D473A44B7)
Complete name : Volki.i.ovcy.2016.D.WEB-DL.1080p.mkv
Format : Matroska
Format version : Version 4 / Version 2
File size : 2.91 GiB
Duration : 1h 24mn
Overall bit rate : 4 911 Kbps
Encoded date : UTC 2010-02-22 21:41:31
Writing application : mkvmerge v5.8.0 ('No Sleep / Pillow') built on Nov 13 2012 19:43:22
Writing library : libebml v1.3.0 + libmatroska v1.4.0

Video
ID : 1
Format : AVC
Format/Info : Advanced Video Codec
Format profile : High@L4.0
Format settings, CABAC : Yes
Format settings, ReFrames : 5 frames
Codec ID : V_MPEG4/ISO/AVC
Duration : 1h 24mn
Bit rate : 4 430 Kbps
Width : 1 920 pixels
Height : 804 pixels
Display aspect ratio : 2.40:1
Frame rate mode : Constant
Frame rate : 24.000 fps
Color space : YUV
Chroma subsampling : 4:2:0
Bit depth : 8 bits
Scan type : Progressive
Bits/(Pixel*Frame) : 0.120
Stream size : 2.62 GiB (90%)
Language : Russian
Default : Yes
Forced : No
Color primaries : BT.709
Transfer characteristics : BT.709
Matrix coefficients : BT.709

Audio
ID : 2
Format : AC-3
Format/Info : Audio Coding 3
Mode extension : CM (complete main)
Format settings, Endianness : Big
Codec ID : A_AC3
Duration : 1h 24mn
Bit rate mode : Constant
Bit rate : 384 Kbps
Channel(s) : 6 channels
Channel positions : Front: L C R, Side: L R, LFE
Sampling rate : 48.0 KHz
Bit depth : 16 bits
Compression mode : Lossy
Stream size : 233 MiB (8%)
Language : Russian
Default : Yes
Forced : No

Menu
00:00:00.000 : en:Глава 1
00:07:15.583 : en:Глава 2
00:12:27.833 : en:Глава 3
00:20:15.791 : en:Глава 4
00:26:23.791 : en:Глава 5
00:31:57.166 : en:Глава 6
00:38:49.082 : en:Глава 7
00:44:24.957 : en:Глава 8
00:50:30.540 : en:Глава 9
00:56:20.790 : en:Глава 10
01:02:49.081 : en:Глава 11
01:09:37.581 : en:Глава 12
01:16:37.831 : en:Глава 13
info [Профиль]  [ЛС] 

deSAD

Пол: Пол:Муж

Стаж: 7 лет 1 месяц

Сообщений: 78

Россия
Рейтинг

post 18-Май-2016 07:30 (спустя 7 часов) [-]5[+]

[Цитировать] 

Спасибо. Сынуля со школы придёт, глянем.

_________________
info [Профиль]  [ЛС] 

Mikari

Пол: Пол:Муж

Стаж: 2 года 7 месяцев

Сообщений: 8

Рейтинг

post 18-Май-2016 21:24 (спустя 13 часов) [-]12[+]

[Цитировать] 

40% голосов на кинопоиске 10 баллов. Падазрительна.
info [Профиль]  [ЛС] 

banek192

Стаж: 5 лет 5 месяцев

Сообщений: 87

Рейтинг

post 18-Май-2016 23:21 (спустя 1 час 57 минут) [-]0[+]

[Цитировать] 

Мультик не плохой, посмотреть стоит.
info [Профиль]  [ЛС] 

Disney

Пол: Пол:Муж

Стаж: 5 лет

Сообщений: 97

Россия
Рейтинг

post 20-Май-2016 09:46 (спустя 1 день 10 часов) [-]1[+]

[Цитировать] 

Верить можно только ИМДБ - Факт. IMDb: 6.60 (46)
info [Профиль]  [ЛС] 

kaktus489

Стаж: 3 года 10 месяцев

Сообщений: 47

Норвегия
Рейтинг

post 21-Май-2016 16:43 (спустя 1 день 6 часов) [-]0[+]

[Цитировать] 

Зверополис, Волки и овцы - толерантность приближается к идиотизму.

_________________
Борьба с пиратством - это когда со злыми дядями, которые бесплатно качают музыку и фильмы, борются добрые дяди, которые бесплатно качают нефть и газ.
info [Профиль]  [ЛС] 

post 21-Июл-2016 10:25 (спустя 1 месяц 30 дней) [-]0[+]

Топик был перенесен из форума Новинки 2015-2016 (Web-DL, DVD, HD DVD, Blu-ray, HD Rips) в форум Мультфильмы (HD Video)

Formula
 
Показать сообщения:    
Ответить на тему

Текущее время: 04-Дек 06:00

Часовой пояс: GMT + 4



Вы не можете начинать темы
Вы не можете отвечать на сообщения
Вы не можете редактировать свои сообщения
Вы не можете удалять свои сообщения
Вы не можете голосовать в опросах
Вы не можете прикреплять файлы к сообщениям
Вы не можете скачивать файлы