Ошибка

Дэдпул / Deadpool (Тим Миллер / Tim Miller) [2016 г., фантастика, боевик, комедия, приключения, BDRemux 1080p]

Ответить на тему
 
Автор Сообщение

Eвгений

Пол: Пол:Муж

Стаж: 6 лет 9 месяцев

Сообщений: 680

Россия
Рейтинг

post 12-Май-2016 14:19 3[+]

[Цитировать] 

Дэдпул / Deadpool

Год выпуска: 2016
Страна: США, Канада
Жанр: фантастика, боевик, комедия, приключения
Продолжительность: 01:48:06
Перевод: Профессиональный (дублированный) лицензия
Перевод 2: Одноголосый закадровый Евгений Гаевский
Перевод 3: Одноголосый закадровый zamez (цензурный и ненормативный)
Язык субтитров: Английский, Русский, Украинский
Режиссер:
  • Тим Миллер

В ролях:
  • Райан Рейнольдс, Морена Баккарин, Эд Скрейн, ТиДжей Миллер, Джина Карано, Брианна Хилдебранд, Стефан Капичич, Лесли Уггэмс, Джед Риис, Каран Сони

Описание: Уэйд Уилсон — наёмник. Будучи побочным продуктом программы вооружённых сил под названием «Оружие X», Уилсон приобрёл невероятную силу, проворство и способность к исцелению. Но страшной ценой: его клеточная структура постоянно меняется, а здравомыслие сомнительно. Всё, чего Уилсон хочет, — это держаться на плаву в социальной выгребной яме. Но течение в ней слишком быстрое.
| |

Качество: BDRemux 1080p
Формат: MKV
Видео кодек: AVC
Аудио кодек: DTS-HD MA, Dolby Digital, DTS
Видео: 23880 kbps, 1920x1080, 23.976 fps
Аудио: Russian / DTS Audio / 5.1 / 48 kHz / 768 kbps | Дубляж
Аудио 2: DTS-HD Master Audio, Russian 7.1 / 48 kHz / 4822 kbps / 24-bit (DTS Core: 5.1-ES / 48 kHz / 1509 kbps / 24-bit) | Гаевский
Аудио 3: Russian / Dolby Digital Audio / 2.0 / 48 kHz / 192 kbps | zamez (ненормативный)
Аудио 4: Russian / Dolby Digital Audio / 2.0 / 48 kHz / 192 kbps | zamez (цензурный)
Аудио 5: DTS-HD Master Audio, English 7.1 / 48 kHz / 4892 kbps / 24-bit (DTS Core: 5.1-ES / 48 kHz / 1509 kbps / 24-bit)
Аудио 6: Ukrainian / Dolby Digital Audio / 5.1 / 48 kHz / 448 kbps
Общее
Уникальный идентификатор : 172043196866092141267277060677899920536 (0x816E5080453B3A85ABBE58C8D6E02498)
Полное имя : R:\Blu-Ray\Дэдпул (2016. Deadpool).mkv
Формат : Matroska
Версия формата : Version 4 / Version 2
Размер файла : 26,4 Гбайт
Продолжительность : 1 ч. 48 м.
Режим общего битрейта : Переменный
Общий поток : 34,9 Мбит/сек
Название фильма : Release for RuTracker
Дата кодирования : UTC 2016-05-08 06:19:31
Программа кодирования : mkvmerge v9.0.1 ('Obstacles') 64bit
Библиотека кодирования : libebml v1.3.3 + libmatroska v1.4.4
Обложка : Yes
Attachments : cover.jpeg

Видео
Идентификатор : 1
Формат : AVC
Формат/Информация : Advanced Video Codec
Профиль формата : High@L4.1
Параметр CABAC формата : Да
Параметр ReFrames формата : 4 кадра
Идентификатор кодека : V_MPEG4/ISO/AVC
Продолжительность : 1 ч. 48 м.
Вид битрейта : Переменный
Битрейт : 23,7 Мбит/сек
Максимальный битрейт : 33,0 Мбит/сек
Ширина : 1920 пикселей
Высота : 1080 пикселей
Соотношение сторон : 16:9
Режим частоты кадров : Постоянный
Частота кадров : 23,976 (24000/1001) кадра/сек
Цветовое пространство : YUV
Субдискретизация насыщенности : 4:2:0
Битовая глубина : 8 бит
Тип развёртки : Прогрессивная
Бит/(Пиксели*Кадры) : 0.476
Размер потока : 17,9 Гбайт (68%)
Язык : English
Default : Да
Forced : Нет

Аудио #1
Идентификатор : 2
Формат : DTS
Формат/Информация : Digital Theater Systems
Режим : 16
Параметр Endianness формата : Big
Идентификатор кодека : A_DTS
Продолжительность : 1 ч. 48 м.
Вид битрейта : Постоянный
Битрейт : 768 Кбит/сек
Каналы : 6 каналов
Расположение каналов : Front: L C R, Side: L R, LFE
Частота : 48,0 КГц
Частота кадров : 93,750 кадра/сек (512 spf)
Битовая глубина : 24 бит
Метод сжатия : С потерями
Размер потока : 594 Мбайт (2%)
Заголовок : Дубляж
Язык : Russian
Default : Да
Forced : Нет

Аудио #2
Идентификатор : 3
Формат : DTS
Формат/Информация : Digital Theater Systems
Профиль формата : MA / ES Matrix / Core
Режим : 16
Параметр Endianness формата : Big
Идентификатор кодека : A_DTS
Продолжительность : 1 ч. 48 м.
Вид битрейта : Переменный / Постоянный / Постоянный
Битрейт : 4822 Кбит/сек / 1509 Кбит/сек / 1509 Кбит/сек
Каналы : 8 каналов / 7 каналов / 6 каналов
Расположение каналов : Front: L C R, Side: L R, Back: L R, LFE / Front: L C R, Side: L R, Back: C, LFE / Front: L C R, Side: L R, LFE
Частота : 48,0 КГц
Частота кадров : 93,750 кадра/сек (512 spf)
Битовая глубина : 24 бит
Метод сжатия : Без потерь / Lossy / Lossy
Размер потока : 3,64 Гбайт (14%)
Заголовок : Евгений Гаевский
Язык : Russian
Default : Нет
Forced : Нет

Аудио #3
Идентификатор : 4
Формат : AC-3
Формат/Информация : Audio Coding 3
Расширение режима : CM (complete main)
Параметр Endianness формата : Big
Идентификатор кодека : A_AC3
Продолжительность : 1 ч. 48 м.
Вид битрейта : Постоянный
Битрейт : 192 Кбит/сек
Каналы : 2 канала
Расположение каналов : Front: L R
Частота : 48,0 КГц
Частота кадров : 31,250 кадров/сек (1536 spf)
Метод сжатия : С потерями
Размер потока : 149 Мбайт (1%)
Заголовок : zamez (ненормативный)
Язык : Russian
Default : Нет
Forced : Нет

Аудио #4
Идентификатор : 5
Формат : AC-3
Формат/Информация : Audio Coding 3
Расширение режима : CM (complete main)
Параметр Endianness формата : Big
Идентификатор кодека : A_AC3
Продолжительность : 1 ч. 48 м.
Вид битрейта : Постоянный
Битрейт : 192 Кбит/сек
Каналы : 2 канала
Расположение каналов : Front: L R
Частота : 48,0 КГц
Частота кадров : 31,250 кадров/сек (1536 spf)
Метод сжатия : С потерями
Размер потока : 149 Мбайт (1%)
Заголовок : zamez (цензурный)
Язык : Russian
Default : Нет
Forced : Нет

Аудио #5
Идентификатор : 6
Формат : DTS
Формат/Информация : Digital Theater Systems
Профиль формата : MA / ES Matrix / Core
Режим : 16
Параметр Endianness формата : Big
Идентификатор кодека : A_DTS
Продолжительность : 1 ч. 48 м.
Вид битрейта : Переменный / Постоянный / Постоянный
Битрейт : 4892 Кбит/сек / 1509 Кбит/сек / 1509 Кбит/сек
Каналы : 8 каналов / 7 каналов / 6 каналов
Расположение каналов : Front: L C R, Side: L R, Back: L R, LFE / Front: L C R, Side: L R, Back: C, LFE / Front: L C R, Side: L R, LFE
Частота : 48,0 КГц
Частота кадров : 93,750 кадра/сек (512 spf)
Битовая глубина : 24 бит
Метод сжатия : Без потерь / Lossy / Lossy
Размер потока : 3,69 Гбайт (14%)
Язык : English
Default : Нет
Forced : Нет

Аудио #6
Идентификатор : 7
Формат : AC-3
Формат/Информация : Audio Coding 3
Расширение режима : CM (complete main)
Параметр Endianness формата : Big
Идентификатор кодека : A_AC3
Продолжительность : 1 ч. 48 м.
Вид битрейта : Постоянный
Битрейт : 448 Кбит/сек
Каналы : 6 каналов
Расположение каналов : Front: L C R, Side: L R, LFE
Частота : 48,0 КГц
Частота кадров : 31,250 кадров/сек (1536 spf)
Метод сжатия : С потерями
Размер потока : 346 Мбайт (1%)
Язык : Ukrainian
Default : Нет
Forced : Нет

Текст #1
Идентификатор : 8
Формат : UTF-8
Идентификатор кодека : S_TEXT/UTF8
Идентификатор кодека/Информация : UTF-8 Plain Text
Продолжительность : 1 ч. 33 м.
Битрейт : 0 бит/сек
Count of elements : 3
Размер потока : 136 байт (0%)
Заголовок : forced
Язык : Russian
Default : Да
Forced : Нет

Текст #2
Идентификатор : 9
Формат : UTF-8
Идентификатор кодека : S_TEXT/UTF8
Идентификатор кодека/Информация : UTF-8 Plain Text
Продолжительность : 1 ч. 47 м.
Битрейт : 88 бит/сек
Count of elements : 1403
Размер потока : 69,4 Кбайт (0%)
Язык : Russian
Default : Нет
Forced : Нет

Текст #3
Идентификатор : 10
Формат : UTF-8
Идентификатор кодека : S_TEXT/UTF8
Идентификатор кодека/Информация : UTF-8 Plain Text
Продолжительность : 1 ч. 44 м.
Битрейт : 56 бит/сек
Count of elements : 1383
Размер потока : 43,1 Кбайт (0%)
Язык : English
Default : Нет
Forced : Нет

Текст #4
Идентификатор : 11
Формат : UTF-8
Идентификатор кодека : S_TEXT/UTF8
Идентификатор кодека/Информация : UTF-8 Plain Text
Продолжительность : 1 ч. 47 м.
Битрейт : 64 бит/сек
Count of elements : 1853
Размер потока : 50,5 Кбайт (0%)
Заголовок : SDH
Язык : English
Default : Нет
Forced : Нет

Текст #5
Идентификатор : 12
Формат : UTF-8
Идентификатор кодека : S_TEXT/UTF8
Идентификатор кодека/Информация : UTF-8 Plain Text
Продолжительность : 1 ч. 47 м.
Битрейт : 0 бит/сек
Count of elements : 13
Размер потока : 591 байт (0%)
Заголовок : forced
Язык : Ukrainian
Default : Нет
Forced : Нет

Текст #6
Идентификатор : 13
Формат : UTF-8
Идентификатор кодека : S_TEXT/UTF8
Идентификатор кодека/Информация : UTF-8 Plain Text
Продолжительность : 1 ч. 47 м.
Битрейт : 92 бит/сек
Count of elements : 1420
Размер потока : 73,0 Кбайт (0%)
Язык : Ukrainian
Default : Нет
Forced : Нет

Текст #7
Идентификатор : 14
Формат : UTF-8
Идентификатор кодека : S_TEXT/UTF8
Идентификатор кодека/Информация : UTF-8 Plain Text
Продолжительность : 1 ч. 47 м.
Битрейт : 140 бит/сек
Count of elements : 2352
Размер потока : 111 Кбайт (0%)
Заголовок : Commentary with director Tim Miller and Deadpool co-creator Rob Liefeld
Язык : English
Default : Нет
Forced : Нет

Текст #8
Идентификатор : 15
Формат : UTF-8
Идентификатор кодека : S_TEXT/UTF8
Идентификатор кодека/Информация : UTF-8 Plain Text
Продолжительность : 1 ч. 48 м.
Битрейт : 155 бит/сек
Count of elements : 2421
Размер потока : 123 Кбайт (0%)
Заголовок : Commentary with director Tim Miller and Deadpool co-creator Rob Liefeld SDH
Язык : English
Default : Нет
Forced : Нет

Текст #9
Идентификатор : 16
Формат : UTF-8
Идентификатор кодека : S_TEXT/UTF8
Идентификатор кодека/Информация : UTF-8 Plain Text
Продолжительность : 1 ч. 47 м.
Битрейт : 136 бит/сек
Count of elements : 1963
Размер потока : 108 Кбайт (0%)
Заголовок : Commentary with Ryan Reynolds and writers Paul Wernick and Rhett Reese
Язык : English
Default : Нет
Forced : Нет

Текст #10
Идентификатор : 17
Формат : UTF-8
Идентификатор кодека : S_TEXT/UTF8
Идентификатор кодека/Информация : UTF-8 Plain Text
Продолжительность : 1 ч. 47 м.
Битрейт : 142 бит/сек
Count of elements : 1994
Размер потока : 113 Кбайт (0%)
Заголовок : Commentary with Ryan Reynolds and writers Paul Wernick and Rhett Reese SDH
Язык : English
Default : Нет
Forced : Нет

Меню
00:00:00.000 : en:Chapter 1
00:03:04.726 : en:Chapter 2
00:05:53.019 : en:Chapter 3
00:09:30.820 : en:Chapter 4
00:13:19.089 : en:Chapter 5
00:16:48.716 : en:Chapter 6
00:20:12.544 : en:Chapter 7
00:22:06.408 : en:Chapter 8
00:27:09.628 : en:Chapter 9
00:31:58.958 : en:Chapter 10
00:36:51.709 : en:Chapter 11
00:41:06.172 : en:Chapter 12
00:44:45.766 : en:Chapter 13
00:46:56.605 : en:Chapter 14
00:50:10.966 : en:Chapter 15
00:53:18.028 : en:Chapter 16
00:55:33.038 : en:Chapter 17
00:59:07.752 : en:Chapter 18
01:03:05.239 : en:Chapter 19
01:07:06.439 : en:Chapter 20
01:09:15.568 : en:Chapter 21
01:12:29.720 : en:Chapter 22
01:16:46.393 : en:Chapter 23
01:20:43.713 : en:Chapter 24
01:25:53.398 : en:Chapter 25
01:31:03.791 : en:Chapter 26
01:34:46.972 : en:Chapter 27
01:39:52.736 : en:Chapter 28
info [Профиль]  [ЛС] 

FenrisWolf

Стаж: 3 года 6 месяцев

Сообщений: 2

Рейтинг

post 12-Май-2016 17:25 (спустя 3 часа) [-]0[+]

[Цитировать] 

Огромное спасибо!!! В кинотеатр сходить не удалось, хоть так посмотрю!!![poster][/poster]
info [Профиль]  [ЛС] 

Caracalla

Пол: Пол:Муж

Стаж: 7 лет 1 месяц

Сообщений: 139

СССР
Рейтинг

post 12-Май-2016 19:17 (спустя 1 час 51 минута) [-]0[+]

[Цитировать] 

Кто в курсе, когда можно ожидать Дэдпула в 3D на торрентах?)
info [Профиль]  [ЛС] 

mrCrAzY

Пол: Пол:Муж

Стаж: 5 лет 5 месяцев

Сообщений: 341

Предупреждений: 1

Украина
Рейтинг

post 13-Май-2016 00:53 (спустя 5 часов) [-]0[+]

[Цитировать] 

озвучка потрясающая !
info [Профиль]  [ЛС] 

psy1o8yte

Пол: Пол:Муж

Стаж: 2 года 2 месяца

Сообщений: 33

Рейтинг

post 13-Май-2016 15:15 (спустя 14 часов) [-]0[+]

[Цитировать] 

бубняж от Гланца или как?
info [Профиль]  [ЛС] 

DevilDVL

Пол: Пол:Муж

Стаж: 5 лет 5 месяцев

Сообщений: 4

Рейтинг

post 13-Май-2016 17:46 (спустя 2 часа 30 минут) [-]2[+]

[Цитировать] 

Caracalla писал(а):

Кто в курсе, когда можно ожидать Дэдпула в 3D на торрентах?)
фильм же в 2д снят
info [Профиль]  [ЛС] 

Namynnuz

Пол: Пол:Муж

Стаж: 3 года 10 месяцев

Сообщений: 5

СССР
Рейтинг

post 13-Май-2016 18:02 (спустя 15 минут) [-]0[+]

[Цитировать] 

Там обещались вырезанные сцены добавить. Не будет director's cut по итогу?
info [Профиль]  [ЛС] 

Caracalla

Пол: Пол:Муж

Стаж: 7 лет 1 месяц

Сообщений: 139

СССР
Рейтинг

post 13-Май-2016 18:20 (спустя 18 минут) [-]0[+]

[Цитировать] 

DevilDVL писал(а):

Caracalla писал(а):

Кто в курсе, когда можно ожидать Дэдпула в 3D на торрентах?)
фильм же в 2д снят
Не знал этого! Спасибо за информацию.
info [Профиль]  [ЛС] 

RINGARD

Стаж: 6 лет 10 месяцев

Сообщений: 84

Рейтинг

post 13-Май-2016 20:02 (спустя 1 час 41 минута) [-]-4[+]

[Цитировать] 

Как по мне так никакого супер-пупер этот фильм из себя не представляет. И да я не из тех эстетов которым такие шутки совсем не нравятся, как по мне в фильме наоборот недобор цинизма и жести.
Ну и сюжет...
Любовные линии как центральный мотив повествования уже порядком подзадрали, а тут ещё сабж вечно извиняется перед своей бабой, а она его лупит...
info [Профиль]  [ЛС] 

GalinaRembovna

Пол: Пол:Муж

Стаж: 3 года 9 месяцев

Сообщений: 6

Армения
Рейтинг

post 13-Май-2016 23:14 (спустя 3 часа) [-]0[+]

[Цитировать] 

Угар конечно адовый ))

_________________
info [Профиль]  [ЛС] 

korolevilia

Пол: Пол:Муж

Стаж: 3 года 10 месяцев

Сообщений: 3

Россия
Рейтинг

post 14-Май-2016 07:01 (спустя 7 часов) [-]-8[+]

[Цитировать] 

вообщето он в 3d шол
info [Профиль]  [ЛС] 

secvensor

Стаж: 3 года 11 месяцев

Сообщений: 137

Рейтинг

post 01-Июн-2016 20:38 (спустя 18 дней) [-]0[+]

[Цитировать] 

Доп сцены просто треш, не советую их вообще смотреть, только разочаруетесь.
info [Профиль]  [ЛС] 

post 21-Июл-2016 10:11 (спустя 1 месяц 19 дней) [-]0[+]

Топик был перенесен из форума Новинки 2015-2016 (Web-DL, DVD, HD DVD, Blu-ray, HD Rips) в форум Зарубежное кино | HD DVD и Blu-ray

Formula
 
Показать сообщения:    
Ответить на тему

Текущее время: 07-Дек 01:56

Часовой пояс: GMT + 4



Вы не можете начинать темы
Вы не можете отвечать на сообщения
Вы не можете редактировать свои сообщения
Вы не можете удалять свои сообщения
Вы не можете голосовать в опросах
Вы не можете прикреплять файлы к сообщениям
Вы не можете скачивать файлы