Ошибка

Кабанери из стальной крепости / Koutetsujou no Kabaneri (TV) [1-12 из 12] [2016] [Приключения, боевик] [HDTV720p] [Профессиональный (Многоголосый) + SUB]

Ответить на тему
 
Автор Сообщение

Chel90RUS

Пол: Пол:Муж

Стаж: 5 лет 5 месяцев

Сообщений: 413

Россия
Рейтинг

post 10-Май-2016 19:14 1[+]

[Цитировать] 

pic="http://static2.anidub.com/tracker/poster/541ad6d138.jpg"
Кабанери из стальной крепости
Kabaneri of the Iron Fortress / Koutetsujou no Kabaneri / 甲鉄城のカバネリ

Год выпуска: 2016
Жанр: Приключения, боевик
Страна: Япония
Тип: HDTV
Продолжительность: 12 серий ~ 23 мин
Дата выпуска: c 08.04.2016 по 01.07.2016
Режиссер: Араки Тэцуро
Автор оригинала / Сценарист: Окоти Итиро
Озвучено: Студийная банда AD Торгиль, Влад Дуров, Demetra, Esther, Trina_D, BalFor, JAM, Давид Петросян, Томас Шлеккер, Cuba77
Перевод: Jeka субтитры отдельно
Тайминг и работа со звуком: Al'pair
Студия: Wit Studio
Аудио: AAC 48000Hz stereo 192kbps [A: Russian [rus] (aac lc, 48000 Hz, stereo, 192 kb/s)]
Видео: MPEG4 Video (H264) 1280x720 23.976fps 2732kbps [V: 264 (h264 high L4.1, yuv420p, 1280x720, 2732 kb/s)]

General
Complete name : \[AniDub]_Koutetsujou_no_Kabaneri_[01]_[720p]_[ADStudio].mp4
Format : MPEG-4
Format profile : Base Media
Codec ID : isom
File size : 482 MiB
Duration : 23mn 5s
Overall bit rate mode : Variable
Overall bit rate : 2 917 Kbps
Encoded date : UTC 2016-04-10 20:46:47
Tagged date : UTC 2016-04-10 20:46:47
Writing application : Yamb 2.1.0.0
Video
ID : 1
Format : AVC
Format/Info : Advanced Video Codec
Format profile : High@L4.1
Format settings, CABAC : Yes
Format settings, ReFrames : 4 frames
Codec ID : avc1
Codec ID/Info : Advanced Video Coding
Duration : 22mn 59s
Bit rate : 2 733 Kbps
Maximum bit rate : 11.9 Mbps
Width : 1 280 pixels
Height : 720 pixels
Display aspect ratio : 16:9
Frame rate mode : Constant
Frame rate : 23.976 fps
Color space : YUV
Chroma subsampling : 4:2:0
Bit depth : 8 bits
Scan type : Progressive
Bits/(Pixel*Frame) : 0.124
Stream size : 449 MiB (93%)
Title : 264
Writing library : x264 core 129 r2245+729M 1a52e03
Encoding settings : cabac=1 / ref=4 / deblock=1:1:-1 / analyse=0x3:0x113 / me=umh / subme=9 / psy=1 / fade_compensate=0.00 / psy_rd=1.00:0.00 / mixed_ref=1 / me_range=24 / chroma_me=1 / trellis=2 / 8x8dct=1 / cqm=0 / deadzone=21,11 / fast_pskip=1 / chroma_qp_offset=-2 / threads=8 / lookahead_threads=1 / sliced_threads=0 / nr=0 / decimate=1 / interlaced=0 / bluray_compat=0 / constrained_intra=0 / fgo=0 / bframes=9 / b_pyramid=2 / b_adapt=2 / b_bias=0 / direct=1 / weightb=1 / open_gop=0 / weightp=2 / keyint=240 / keyint_min=24 / scenecut=40 / intra_refresh=0 / rc=crf / mbtree=0 / crf=17.5 / qcomp=0.72 / qpmin=0 / qpmax=69 / qpstep=4 / ip_ratio=1.40 / pb_ratio=1.30 / aq=1:0.85
Encoded date : UTC 2016-04-07 23:27:10
Tagged date : UTC 2016-04-10 20:46:53
Color range : Limited
Color primaries : BT.709
Transfer characteristics : BT.709
Matrix coefficients : BT.709

Audio
ID : 2
Format : AAC
Format/Info : Advanced Audio Codec
Format profile : LC
Codec ID : 40
Duration : 23mn 5s
Bit rate mode : Variable
Bit rate : 192 Kbps
Maximum bit rate : 200 Kbps
Channel(s) : 2 channels
Channel positions : Front: L R
Sampling rate : 48.0 KHz
Compression mode : Lossy
Stream size : 31.7 MiB (7%)
Language : Russian
Encoded date : UTC 2016-04-10 20:46:53
Tagged date : UTC 2016-04-10 20:46:53


Описание:Когда мир находится на пике индустриальной революции, внезапно появляется чудовище. Его можно победить, только пронзив сердце, скрытое под слоем стали. От одного его укуса люди заражаются и становятся агрессивной нежитью — кабане.
На дальневосточном острове Хиномото ради защиты от этих монстров люди построили специальные станции, между которыми передвигаются с помощью парового бронированного локомотива. На станции Араганэ живёт Икома, парень, который помогал строить локомотив. Чтобы победить монстров, он создал собственное оружие. Однажды он встречает девушку, освобождённую от обязательной инспекции. Ночью они видят, что локомотив вышел из-под контроля, его персонал стал монстрами, а кабане нападают на станцию. Однако именно такой возможности Икома и ждал.
Добавлена 12 серия 04/07/2016
info [Профиль]  [ЛС] 

Chel90RUS

Пол: Пол:Муж

Стаж: 5 лет 5 месяцев

Сообщений: 413

Россия
Рейтинг

post 17-Май-2016 01:10 (спустя 6 дней) [-]0[+]

[Цитировать] 

Добавлена 5 серия 17/05/2016

_________________
info [Профиль]  [ЛС] 

Chel90RUS

Пол: Пол:Муж

Стаж: 5 лет 5 месяцев

Сообщений: 413

Россия
Рейтинг

post 25-Май-2016 02:54 (спустя 8 дней) [-]0[+]

[Цитировать] 

Добавлена 6 серия 25/05/2016

_________________
info [Профиль]  [ЛС] 

Chel90RUS

Пол: Пол:Муж

Стаж: 5 лет 5 месяцев

Сообщений: 413

Россия
Рейтинг

post 31-Май-2016 23:34 (спустя 6 дней) [-]0[+]

[Цитировать] 

Добавлена 7 серия 31/05/2016

_________________
info [Профиль]  [ЛС] 

ScorrrPIO

Пол: Пол:Муж

Стаж: 7 лет 2 месяца

Сообщений: 9

Россия
Рейтинг

post 05-Июн-2016 00:11 (спустя 4 дня) [-]0[+]

[Цитировать] 

Хороший перевод. Как часто они выпускают серии?
info [Профиль]  [ЛС] 

Chel90RUS

Пол: Пол:Муж

Стаж: 5 лет 5 месяцев

Сообщений: 413

Россия
Рейтинг

post 05-Июн-2016 00:29 (спустя 17 минут) [-]1[+]

[Цитировать] 

ScorrrPIO писал(а):

Хороший перевод. Как часто они выпускают серии?
По воскресениям пишутся на студии, стримы озвучки со студии запускают примерно в 11-12 мск вот тут, группа Студийной Банды в вк тут
Если ты про перевод то, группа переводчика в вк вот тут
Сами же серии в озвучке выходят понедельник-вторник

_________________
info [Профиль]  [ЛС] 

Chel90RUS

Пол: Пол:Муж

Стаж: 5 лет 5 месяцев

Сообщений: 413

Россия
Рейтинг

post 08-Июн-2016 23:08 (спустя 3 дня) [-]0[+]

[Цитировать] 

Добавлена 8 серия 08/06/2016

_________________
info [Профиль]  [ЛС] 

Dragon2055

Пол: Пол:Муж

Стаж: 5 лет 5 месяцев

Сообщений: 171

Рейтинг

post 10-Июн-2016 11:39 (спустя 1 день 12 часов) [-]-3[+]

[Цитировать] 

18+.....
Да ту дурь, что выдается под видом сюжета, можно нормально воспринимать только если ты школьник.
Я обычно к анимам не придераюсь, штампы есть штампы, но тут, якобы серьезная анима, а сценарий словно писал умственно отсталый. Логики нет, герои непроходимые идиоты с синдромом имперских штурмовиков, зомби то рвут поезда голыми руками, то не могут справится с обычным человеком.
Мне эта анима напомнила 2 последних сезона Стрелы, где на каждой серии можно брать блакнотик и выписывать ту чушь, которую выдают нам сценаристы.
info [Профиль]  [ЛС] 

Chel90RUS

Пол: Пол:Муж

Стаж: 5 лет 5 месяцев

Сообщений: 413

Россия
Рейтинг

post 14-Июн-2016 11:33 (спустя 3 дня) [-]0[+]

[Цитировать] 

Добавлена 9 серия 14/06/2016

_________________
info [Профиль]  [ЛС] 

Chel90RUS

Пол: Пол:Муж

Стаж: 5 лет 5 месяцев

Сообщений: 413

Россия
Рейтинг

post 22-Июн-2016 17:23 (спустя 8 дней) [-]0[+]

[Цитировать] 

Добавлена 10 серия 22/06/2016

_________________
info [Профиль]  [ЛС] 

Chel90RUS

Пол: Пол:Муж

Стаж: 5 лет 5 месяцев

Сообщений: 413

Россия
Рейтинг

post 28-Июн-2016 16:18 (спустя 5 дней) [-]0[+]

[Цитировать] 

Добавлена 11 серия 28/06/2016

_________________
info [Профиль]  [ЛС] 

Chel90RUS

Пол: Пол:Муж

Стаж: 5 лет 5 месяцев

Сообщений: 413

Россия
Рейтинг

post 04-Июл-2016 23:19 (спустя 6 дней) [-]0[+]

[Цитировать] 

Добавлена 12 серия 04/07/2016

_________________
info [Профиль]  [ЛС] 

Valet28011

Пол: Пол:Муж

Стаж: 7 лет 8 месяцев

Сообщений: 1020

Предупреждений: 1

Рейтинг

post 14-Июл-2016 17:23 (спустя 9 дней) [-]0[+]

[Цитировать] 

Dragon2055
пшел вон от сюда, хейтер

_________________
info [Профиль]  [ЛС] 
Показать сообщения:    
Ответить на тему

Текущее время: 06-Дек 23:57

Часовой пояс: GMT + 4



Вы не можете начинать темы
Вы не можете отвечать на сообщения
Вы не можете редактировать свои сообщения
Вы не можете удалять свои сообщения
Вы не можете голосовать в опросах
Вы не можете прикреплять файлы к сообщениям
Вы не можете скачивать файлы