Ошибка

Полет Ведьмы / Flying Witch (TV) [1-12 из 12] [2016] [Повседневность, комедия, мистика] [HDTV720p] [Любительский]

Ответить на тему
 
Автор Сообщение

Chel90RUS

Пол: Пол:Муж

Стаж: 5 лет 5 месяцев

Сообщений: 413

Россия
Рейтинг

post 10-Май-2016 10:11 1[+]

[Цитировать] 

pic="http://static2.anidub.com/tracker/poster/06c1ce6a29.jpg"
Полет Ведьмы
Flying Witch / ふらいんぐうぃっち

Год выпуска: 2016
Жанр: Повседневность, комедия, мистика
Страна: Япония
Тип: HDTV
Продолжительность: 12 серий ~ 25 мин
Дата выпуска: c 10.04.2016 по 26.06.2016
Режиссер: Сакураби Кацуси
Автор оригинала / Сценарист: Исидзука Тихиро
Студия: J.C.Staff
Озвучено: Fuurou, Trina_D
Перевод: Norika
Тайминг и работа со звуком: Gradis
Формат файла: Mp4
Аудио: AAC 48000Hz stereo 165kbps [A: Russian [rus] (aac lc, 48000 Hz, stereo, 165 kb/s)]
Видео: MPEG4 Video (H264) 1280x720 23.976fps 1492kbps [V: 264 (h264 high L4.1, yuv420p, 1280x720, 1492 kb/s)]

General
Complete name : \[AniDub]_Flying_Witch_[01]_[720p_x264_Aac]_[Trina_D_Fuurou].mp4
Format : MPEG-4
Format profile : Base Media
Codec ID : isom
File size : 272 MiB
Duration : 22mn 57s
Overall bit rate mode : Variable
Overall bit rate : 1 654 Kbps
Encoded date : UTC 2016-04-15 11:41:26
Tagged date : UTC 2016-04-15 11:41:26
Writing application : Yamb 2.1.0.0

Video
ID : 1
Format : AVC
Format/Info : Advanced Video Codec
Format profile : High@L4.1
Format settings, CABAC : Yes
Format settings, ReFrames : 4 frames
Codec ID : avc1
Codec ID/Info : Advanced Video Coding
Duration : 22mn 49s
Bit rate : 1 493 Kbps
Maximum bit rate : 15.8 Mbps
Width : 1 280 pixels
Height : 720 pixels
Display aspect ratio : 16:9
Frame rate mode : Constant
Frame rate : 23.976 fps
Color space : YUV
Chroma subsampling : 4:2:0
Bit depth : 8 bits
Scan type : Progressive
Bits/(Pixel*Frame) : 0.068
Stream size : 244 MiB (90%)
Title : 264
Writing library : x264 core 129 r2245+729M 1a52e03
Encoding settings : cabac=1 / ref=4 / deblock=1:1:-1 / analyse=0x3:0x113 / me=umh / subme=9 / psy=1 / fade_compensate=0.00 / psy_rd=1.00:0.00 / mixed_ref=1 / me_range=24 / chroma_me=1 / trellis=2 / 8x8dct=1 / cqm=0 / deadzone=21,11 / fast_pskip=1 / chroma_qp_offset=-2 / threads=8 / lookahead_threads=1 / sliced_threads=0 / nr=0 / decimate=1 / interlaced=0 / bluray_compat=0 / constrained_intra=0 / fgo=0 / bframes=9 / b_pyramid=2 / b_adapt=2 / b_bias=0 / direct=1 / weightb=1 / open_gop=0 / weightp=2 / keyint=240 / keyint_min=24 / scenecut=40 / intra_refresh=0 / rc=crf / mbtree=0 / crf=18.0 / qcomp=0.72 / qpmin=0 / qpmax=69 / qpstep=4 / ip_ratio=1.40 / pb_ratio=1.30 / aq=1:0.85
Encoded date : UTC 2016-04-09 21:34:20
Tagged date : UTC 2016-04-15 11:41:56
Color range : Limited
Color primaries : BT.709
Transfer characteristics : BT.709
Matrix coefficients : BT.709

Audio
ID : 2
Format : AAC
Format/Info : Advanced Audio Codec
Format profile : LC
Codec ID : 40
Duration : 22mn 57s
Duration_FirstFrame : 64ms
Bit rate mode : Variable
Bit rate : 165 Kbps
Maximum bit rate : 211 Kbps
Channel(s) : 2 channels
Channel positions : Front: L R
Sampling rate : 48.0 KHz
Compression mode : Lossy
Stream size : 27.2 MiB (10%)
Language : Russian
Encoded date : UTC 2016-04-15 11:41:55
Tagged date : UTC 2016-04-15 11:41:56


Описание:Аомори, Япония. Провинциальный городок, удивляющий своей красивой природой. Среди гор и прозрачных рек, окружённых зеленью, жизнь течёт особенно размеренно и спокойно. По крайней мере, так было до того, как туда приехала молодая ведьма Макото, которую отправили к родственникам, чтобы она научилась жить вдали от дома и стала лучше в ведьмовском деле. Она поселяется у троюродного брата Кэя и сестры Чинацу, которые сразу замечают, что она ведёт себя немного странно. Когда Макото, выбирая метлу на рынке, поднимается на ней в воздух, Чинацу окончательно понимает, что дальше их ждёт весёлая и необычная совместная жизнь.
Добавлены 9-12 серии 25/09/2016
info [Профиль]  [ЛС] 

PavelDuke

Пол: Пол:Муж

Стаж: 3 года 10 месяцев

Сообщений: 22

Рейтинг

post 10-Май-2016 11:36 (спустя 1 час 24 минуты) [-]8[+]

[Цитировать] 

info [Профиль]  [ЛС] 

cyraxprime

Стаж: 7 лет 7 месяцев

Сообщений: 1

Россия
Рейтинг

post 10-Май-2016 23:24 (спустя 11 часов) [-]0[+]

[Цитировать] 

Вот именно, что даже кот есть!
info [Профиль]  [ЛС] 

Ritsu

Пол: Пол:Муж

Стаж: 5 лет 5 месяцев

Сообщений: 856

Австралия
Рейтинг

post 11-Май-2016 00:31 (спустя 1 час 6 минут) [-]0[+]

[Цитировать] 

Подписался

_________________
Флудите вместе с Рицу и будет вам счастье! ^__^

"...Зажжем рок в этой дыре!.."
info [Профиль]  [ЛС] 

Greyf24

Стаж: 2 года

Сообщений: 342

Предупреждений: 1

Зимбабве
Рейтинг

post 11-Май-2016 06:08 (спустя 5 часов) [-]0[+]

[Цитировать] 

не думаю, что кто-то переплюнет Мастера. Но подписался. Даже если будет вполовину так же хорошо, как "В.С.Д." - будет супер.
info [Профиль]  [ЛС] 

Chel90RUS

Пол: Пол:Муж

Стаж: 5 лет 5 месяцев

Сообщений: 413

Россия
Рейтинг

post 21-Май-2016 17:02 (спустя 10 дней) [-]0[+]

[Цитировать] 

Добавлена 5 серия 20/05/2016

_________________
info [Профиль]  [ЛС] 

Chel90RUS

Пол: Пол:Муж

Стаж: 5 лет 5 месяцев

Сообщений: 413

Россия
Рейтинг

post 02-Июн-2016 01:03 (спустя 11 дней) [-]0[+]

[Цитировать] 

Добавлены 6-7 серии 02/06/2016

_________________
info [Профиль]  [ЛС] 

Chel90RUS

Пол: Пол:Муж

Стаж: 5 лет 5 месяцев

Сообщений: 413

Россия
Рейтинг

post 09-Июн-2016 22:57 (спустя 7 дней) [-]0[+]

[Цитировать] 

Добавлена 8 серия 09/06/2016

_________________
info [Профиль]  [ЛС] 

Chel90RUS

Пол: Пол:Муж

Стаж: 5 лет 5 месяцев

Сообщений: 413

Россия
Рейтинг

post 25-Сен-2016 16:32 (спустя 3 месяца 15 дней) [-]0[+]

[Цитировать] 

Добавлены 9-12 серии 25/09/2016

_________________
info [Профиль]  [ЛС] 

Ramio Lin

Пол: Пол:Муж

Стаж: 6 лет 1 месяц

Сообщений: 56

Россия
Рейтинг

post 25-Сен-2016 19:35 (спустя 3 часа) [-]0[+]

[Цитировать] 

Повседневная повседневность до мозга костей )) Чертовски скучно но очень няшно ^^

_________________
Не дай угаснуть свету в своём сердце ~^
info [Профиль]  [ЛС] 
Показать сообщения:    
Ответить на тему

Текущее время: 03-Дек 10:55

Часовой пояс: GMT + 4



Вы не можете начинать темы
Вы не можете отвечать на сообщения
Вы не можете редактировать свои сообщения
Вы не можете удалять свои сообщения
Вы не можете голосовать в опросах
Вы не можете прикреплять файлы к сообщениям
Вы не можете скачивать файлы