Ошибка

Норм и несокрушимые / Norm of the North (Тревор Уолл) [2016 г., Мультфильм, комедия, приключения, семейный, HDRip] [iTunes]

Ответить на тему
 
Автор Сообщение

CrazySmall

Пол: Пол:Муж

Стаж: 6 лет 9 месяцев

Сообщений: 281

СССР
Рейтинг

post 23-Апр-2016 18:57 2[+]

[Цитировать] 

Норм и несокрушимые / Norm of the North

Год выпуска: 2016
Страна: США, Индия
Жанр: Мультфильм, комедия, приключения, семейный
Продолжительность: 01:30:30
Перевод: Профессиональный (полное дублирование) [iTunes]
Язык субтитров: нет

Режиссер:
  • Тревор Уолл


В ролях:
  • Роб Шнайдер, Хезер Грэм, Кен Жонг, Билл Найи, Колм Мини, Лоретта Дивайн, Майкл МакЭлхаттон, Майя Кэй, Габриэль Иглесиас, Салом Дженс


Описание: Встречайте! Норм и Несокрушимые — добродушный белый медведь и шустрые лемминги. Их миссия — спасти родную Арктику от коварной корпорации. Могущественный босс Мистер Грин задумал построить здесь, среди чистых льдов, город богачей, и пушистый отряд должен дать противнику бой на его территории. Норм и Несокрушимые отправляются прямо в каменные джунгли мегаполиса. Их обаяние, отвага, шутки и танцы — особенно зажигательный «Арктик Шейк» — растопят сердца горожан, но для победы мало просто стать звёздами. Впереди — настоящие испытания и вихрь приключений.


Качество: HDRip
Формат: AVI
Видео кодек: XVid
Аудио кодек: AC3
Видео: 1856 Kbit/s, 704x384, 23,976 fps
Аудио: AC3, 6 ch, 384 kbps, 48 kHz
Формат : AVI
Формат/Информация : Audio Video Interleave
Размер файла : 1,42 Гбайт
Продолжительность : 1 ч. 30 м.
Общий поток : 2249 Кбит/сек
Название фильма : Norm.i.Nesokrushimye.2016.D.BDRip
Режиссёр : Twi7ter
Жанр : Comedy/Adventure/Family
Программа кодирования : VirtualDubMod 1.5.10.3 (build 2550/release)
Формат оригинала/Имя : Cartoon

Видео
Идентификатор : 0
Формат : MPEG-4 Visual
Профиль формата : Advanced Simple@L5
Параметр BVOP формата : 2
Параметр QPel формата : Нет
Параметр GMC формата : Без точки перехода
Параметр матрицы формата : Выборочная
Идентификатор кодека : XVID
Идентификатор кодека/Подсказка : XviD
Продолжительность : 1 ч. 30 м.
Битрейт : 1856 Кбит/сек
Ширина : 704 пикселя
Высота : 384 пикселя
Соотношение сторон : 1,85:1
Частота кадров : 23,976 (24000/1001) кадра/сек
Цветовое пространство : YUV
Субдискретизация насыщенности : 4:2:0
Битовая глубина : 8 бит
Тип развёртки : Прогрессивная
Метод сжатия : С потерями
Бит/(Пиксели*Кадры) : 0.286
Размер потока : 1,17 Гбайт (83%)
Библиотека кодирования : XviD 73

Аудио
Идентификатор : 1
Формат : AC-3
Формат/Информация : Audio Coding 3
Расширение режима : CM (complete main)
Параметр Endianness формата : Big
Идентификатор кодека : 2000
Продолжительность : 1 ч. 30 м.
Вид битрейта : Постоянный
Битрейт : 384 Кбит/сек
Каналы : 6 каналов
Расположение каналов : Front: L C R, Side: L R, LFE
Частота : 48,0 КГц
Частота кадров : 31,250 кадров/сек (1536 spf)
Метод сжатия : С потерями
Размер потока : 249 Мбайт (17%)
Выравнивание : Разделение по промежуткам
Продолжительность промежутка : 42 мс. (1,00 видеокадр)
Время предзагрузки промежутка : 500 мс.
info [Профиль]  [ЛС] 

BZzz

Пол: Пол:Муж

Стаж: 5 лет 1 месяц

Сообщений: 3647

Россия
Рейтинг

post 23-Апр-2016 20:00 (спустя 1 час 2 минуты) [-]0[+]

[Цитировать] 

CrazySmall писал(а):

Видео кодек: DivX
Уверены?

CrazySmall писал(а):

Видео: 1700 Kbit/s

CrazySmall писал(а):

Битрейт : 1856 Кбит/сек
Как так?

_________________
info [Профиль]  [ЛС] 

CrazySmall

Пол: Пол:Муж

Стаж: 6 лет 9 месяцев

Сообщений: 281

СССР
Рейтинг

post 23-Апр-2016 22:21 (спустя 2 часа 21 минута) [-]11[+]

[Цитировать] 

Приношу извинения. Это все последствия воздействия алкоголя на уже не молодой, и не совсем здоровый организм.
Исправлено.

_________________
Сто процентную гарантию дает только контрольный выстрел в голову.
info [Профиль]  [ЛС] 

Scalofab

Пол: Пол:Муж

Стаж: 5 лет 2 месяца

Сообщений: 5

Россия
Рейтинг

post 23-Апр-2016 23:29 (спустя 1 час 8 минут) [-]2[+]

[Цитировать] 

CrazySmall писал(а):

Приношу извинения. Это все последствия воздействия алкоголя на уже не молодой, и не совсем здоровый организм.
Исправлено.
Скачаю и посмотрю только из-за этого сообщения!) Спасибо за небольшую порцию положительных эмоций от прочитанного)
info [Профиль]  [ЛС] 

Конгрик

Пол: Пол:Муж

Стаж: 4 года 2 месяца

Сообщений: 228

Россия
Рейтинг

post 25-Май-2016 19:43 (спустя 1 месяц 1 день) [-]-1[+]

[Цитировать] 

Спасибо за раздачу!

_________________
Люблю людей, люблю когда их нет. Выйду на балкон, разряжу пистолет...
info [Профиль]  [ЛС] 

linafra

Пол: Пол:Жен

Стаж: 7 лет 2 месяца

Сообщений: 114

Рейтинг

post 27-Май-2016 10:11 (спустя 1 день 14 часов) [-]0[+]

[Цитировать] 

Очень плохой мультфильм. Не стоит на него тратить время
info [Профиль]  [ЛС] 

CrazySmall

Пол: Пол:Муж

Стаж: 6 лет 9 месяцев

Сообщений: 281

СССР
Рейтинг

post 27-Май-2016 16:39 (спустя 6 часов) [-]0[+]

[Цитировать] 

linafra писал(а):

Очень плохой мультфильм. Не стоит на него тратить время
Многие так же о Спанч Бобе и Футураме говорят....

_________________
Сто процентную гарантию дает только контрольный выстрел в голову.
info [Профиль]  [ЛС] 

post 21-Июл-2016 11:06 (спустя 1 месяц 24 дня) [-]0[+]

Топик был перенесен из форума Новинки 2015-2016 (Rips) в форум Зарубежные полнометражные мультфильмы

Formula
 
Показать сообщения:    
Ответить на тему

Текущее время: 03-Дек 23:47

Часовой пояс: GMT + 4



Вы не можете начинать темы
Вы не можете отвечать на сообщения
Вы не можете редактировать свои сообщения
Вы не можете удалять свои сообщения
Вы не можете голосовать в опросах
Вы не можете прикреплять файлы к сообщениям
Вы не можете скачивать файлы