Ошибка

Смешарики. Легенда о золотом драконе (Денис Чернов) [2016 г., мультфильм, приключения, комедия, WEB-DLRip] [iTunes]

Ответить на тему
 
Автор Сообщение

Xohllenok

Пол: Пол:Муж

Стаж: 1 год 9 месяцев

Сообщений: 342

Россия
Рейтинг

post 21-Апр-2016 12:07 3[+]

[Цитировать] 


Смешарики. Легенда о золотом драконе
«Предпоследняя надежда человечества»

Год выхода: 2016
Страна: Россия
Жанр: мультфильм, приключения, комедия
Продолжительность: 01:20:17
Перевод: Оригинал [iTunes]
Субтитры: Отсутствуют
Режиссер: Денис Чернов
В ролях: Михаил Черняк, Сергей Мардарь, Антон Виноградов, Владимир Постников, Светлана Письмиченко, Вадим Бочанов, Гарик Харламов, Дмитрий Нагиев, Елена Шульман, Владимир Маслаков
О фильме: Выдающийся учёный и его команда отправляются в самое сердце диких джунглей, где их ждут опасные приключения, свирепые туземцы и расхитители гробниц, до зубов вооруженные гаджетами.
Качество: WEB-DLRip
Формат: avi
Видео кодек: XviD
Аудио кодек: AC3
Видео: 720x304, 23.976 fps, 2041 Кбит/с
Аудио: 384 kb/s, 6 ch, 48.0 KHz
          
Общее
Полное имя : D:\Новая папка\фильмы\Cmewar1k1.LegeHda.O.Zolot0m.Drak0He.2016.O.WEB-DLRip.avi
Формат : AVI
Формат/Информация : Audio Video Interleave
Размер файла : 1,37 Гбайт
Продолжительность : 1 ч. 20 м.
Общий поток : 2434 Кбит/сек
Программа кодирования : VirtualDubMod 1.5.10.3 | || (build 2550/release)
Библиотека кодирования : VirtualDubMod build 2550/release

Видео
Идентификатор : 0
Формат : MPEG-4 Visual
Профиль формата : Advanced Simple@L5
Параметр BVOP формата : 2
Параметр QPel формата : Нет
Параметр GMC формата : Без точки перехода
Параметр матрицы формата : Default (MPEG)
Идентификатор кодека : XVID
Идентификатор кодека/Подсказка : XviD
Продолжительность : 1 ч. 20 м.
Битрейт : 1945 Кбит/сек
Ширина : 720 пикселей
Высота : 304 пикселя
Соотношение сторон : 2,35:1
Частота кадров : 23,976 кадра/сек
Цветовое пространство : YUV
Субдискретизация насыщенности : 4:2:0
Битовая глубина : 8 бит
Тип развёртки : Прогрессивная
Метод сжатия : С потерями
Бит/(Пиксели*Кадры) : 0.371
Размер потока : 1,09 Гбайт (80%)
Библиотека кодирования : XviD 1.2.1 (UTC 2008-12-04)

Аудио
Идентификатор : 1
Формат : AC-3
Формат/Информация : Audio Coding 3
Расширение режима : CM (complete main)
Параметр Endianness формата : Big
Идентификатор кодека : 2000
Продолжительность : 1 ч. 20 м.
Вид битрейта : Постоянный
Битрейт : 384 Кбит/сек
Каналы : 6 каналов
Расположение каналов : Front: L C R, Side: L R, LFE
Частота : 48,0 КГц
Битовая глубина : 16 бит
Метод сжатия : С потерями
Размер потока : 221 Мбайт (16%)
Выравнивание : Разделение по промежуткам
info [Профиль]  [ЛС] 

post 21-Апр-2016 14:49 (спустя 2 часа 41 минута) [-]0[+]

Топик был перенесен из форума Новинки 2015-2016 (Web-DL, DVD, HD DVD, Blu-ray, HD Rips) в форум Новинки 2015-2016 (Rips)

BZzz
 

lalalala

Пол: Пол:Муж

Стаж: 6 лет 9 месяцев

Сообщений: 725

Предупреждений: 2

Рейтинг

post 21-Апр-2016 17:31 (спустя 5 часов) [-]0[+]

[Цитировать] 

Ну что как ?))))
info [Профиль]  [ЛС] 

Alice D

Пол: Пол:Муж

Стаж: 7 лет 8 месяцев

Сообщений: 202

Россия
Рейтинг

post 21-Апр-2016 18:57 (спустя 1 час 25 минут) [-]0[+]

[Цитировать] 

Ну наконец то, дождался!!!!!!!!!!!!!!!!

_________________
info [Профиль]  [ЛС] 

post 21-Июл-2016 11:18 (спустя 2 месяца 29 дней) [-]0[+]

Топик был перенесен из форума Новинки 2015-2016 (Rips) в форум Отечественные полнометражные мультфильмы

Formula
 
Показать сообщения:    
Ответить на тему

Текущее время: 09-Дек 02:10

Часовой пояс: GMT + 4



Вы не можете начинать темы
Вы не можете отвечать на сообщения
Вы не можете редактировать свои сообщения
Вы не можете удалять свои сообщения
Вы не можете голосовать в опросах
Вы не можете прикреплять файлы к сообщениям
Вы не можете скачивать файлы