Ошибка

До окончания фрилича осталось:


Смешарики. Легенда о золотом драконе (Денис Чернов) [2016, мультфильм, приключения, комедия, WEB-DL 1080p]

Ответить на тему
 
Автор Сообщение

BZzz

Пол: Пол:Муж

Стаж: 5 лет 1 месяц

Сообщений: 3647

Россия
Рейтинг

post 21-Апр-2016 01:50 3[+]

[Цитировать] 

Смешарики. Легенда о золотом драконе
«Предпоследняя надежда человечества»




Год выпуска: 2016
Страна: Россия
Жанр: мультфильм, приключения, комедия
Продолжительность: 01:20:17
Перевод: Оригинал [цифровая лицензия iTunes]

Режиссер: Денис Чернов

В ролях: Михаил Черняк (Копатыч, Лосяш, Пин, озвучка), Сергей Мардарь (Кар-Карыч, Совунья, озвучка), Антон Виноградов (Крош, озвучка), Владимир Постников (Ёжик, озвучка), Светлана Письмиченко (Нюша, озвучка), Вадим Бочанов (Бараш, озвучка), Гарик Харламов (озвучка), Дмитрий Нагиев (озвучка), Елена Шульман (Лада, озвучка), Владимир Маслаков (Шаман, озвучка)


Описание: Выдающийся учёный и его команда отправляются в самое сердце диких джунглей, где их ждут опасные приключения, свирепые туземцы и расхитители гробниц, до зубов вооруженные гаджетами.

Бюджет: $15 000 000
Сборы в России: $3 978 050



Качество: WEB-DL 1080p
Формат: MKV
Видео кодек: AVC
Аудио кодек: AC3
Видео: 1912x796 (2.40:1), 23.976 fps, High@L4.0, 4 500 Kbps
Аудио #1: AC3, 384 Kbps, 48.0 KHz, 6 ch
Format : Matroska
Format version : Version 4 / Version 2
File size : 2.74 GiB
Duration : 1h 20mn
Overall bit rate : 4 886 Kbps
Encoded date : UTC 2016-04-20 18:34:03
Writing application : mkvmerge v8.3.0 ('Over the Horizon') 64bit
Writing library : libebml v1.3.1 + libmatroska v1.4.2

Video
ID : 1
Format : AVC
Format/Info : Advanced Video Codec
Format profile : High@L4
Format settings, CABAC : Yes
Format settings, ReFrames : 5 frames
Codec ID : V_MPEG4/ISO/AVC
Duration : 1h 20mn
Bit rate : 4 500 Kbps
Width : 1 912 pixels
Height : 796 pixels
Display aspect ratio : 2.40:1
Frame rate mode : Constant
Frame rate : 23.976 (24000/1001) fps
Color space : YUV
Chroma subsampling : 4:2:0
Bit depth : 8 bits
Scan type : Progressive
Bits/(Pixel*Frame) : 0.123
Stream size : 2.52 GiB (92%)
Language : English
Default : Yes
Forced : No
Color range : Limited
Color primaries : BT.709
Transfer characteristics : BT.709
Matrix coefficients : BT.709

Audio
ID : 2
Format : AC-3
Format/Info : Audio Coding 3
Mode extension : CM (complete main)
Format settings, Endianness : Big
Codec ID : A_AC3
Duration : 1h 20mn
Bit rate mode : Constant
Bit rate : 384 Kbps
Channel(s) : 6 channels
Channel positions : Front: L C R, Side: L R, LFE
Sampling rate : 48.0 KHz
Frame rate : 31.250 fps (1536 spf)
Compression mode : Lossy
Stream size : 221 MiB (8%)
Language : Russian
Default : Yes
Forced : No

Menu
00:00:00.000 : en:1
00:02:26.000 : en:2
00:12:38.000 : en:3
00:20:06.000 : en:4
00:30:21.000 : en:5
00:41:12.000 : en:6
00:52:53.000 : en:7
01:01:34.000 : en:8
01:14:38.000 : en:9
info [Профиль]  [ЛС] 

книжник из дурдома

Пол: Пол:Муж

Стаж: 6 лет 9 месяцев

Сообщений: 114

Россия
Рейтинг

post 21-Апр-2016 13:28 (спустя 11 часов) [-]2[+]

[Цитировать] 

Неплохо.
info [Профиль]  [ЛС] 

Oksi Klim

Пол: Пол:Жен

Стаж: 4 года 11 месяцев

Сообщений: 44

СССР
Рейтинг

post 25-Май-2016 18:50 (спустя 1 месяц 4 дня) [-]6[+]

[Цитировать] 

BZzz
Спасибо! Улыбаюсь

_________________
Have a question? Go, FAQ yourself.
info [Профиль]  [ЛС] 

post 21-Июл-2016 10:24 (спустя 1 месяц 26 дней) [-]0[+]

Топик был перенесен из форума HD Rips в форум Мультфильмы (HD Video)

Formula
 
Показать сообщения:    
Ответить на тему

Текущее время: 10-Дек 05:17

Часовой пояс: GMT + 4



Вы не можете начинать темы
Вы не можете отвечать на сообщения
Вы не можете редактировать свои сообщения
Вы не можете удалять свои сообщения
Вы не можете голосовать в опросах
Вы не можете прикреплять файлы к сообщениям
Вы не можете скачивать файлы