Ошибка

Сквозь эпохи: Узы ракуго / Shouwa Genroku Rakugo Shinjuu (TV-1) [1-13 из 13] [2016] [Повседневность, комедия, драма] [HDTV720p] [Любительский (Многоголосый)]

Ответить на тему
 
Автор Сообщение

Chel90RUS

Пол: Пол:Муж

Стаж: 5 лет 5 месяцев

Сообщений: 413

Россия
Рейтинг

post 15-Апр-2016 15:38 0[+]

[Цитировать] 

pic="http://static2.anidub.com/tracker/poster/e620f38741.jpg"
Сквозь эпохи: Узы ракуго
Shouwa Genroku Rakugo Shinjuu

Год выпуска: 2016
Жанр: Повседневность, комедия, драма
Страна: Япония
Тип: HDTV
Продолжительность: 13 серий ~ 24 мин.
Дата выпуска: c 09.01.2016 по 02.04.2016
Режиссер: Омата Синъити
Автор оригинала / Сценарист: Кумота Харуко
Студия: Studio Deen
Озвучено: Gecep, Vel, Trina_D, Cuba77
Перевод: Timecraft
Тайминг и работа со звуком: NeSqUiK
Формат файла: Mp4
Аудио: AAC 48000Hz stereo 192kbps [A: English [eng] (aac lc, 48000 Hz, stereo, 192 kb/s)]
Видео: MPEG4 Video (H264) 1280x720 23.976fps 1666kbps [V: 264 (h264 high L4.1, yuv420p, 1280x720, 1666 kb/s)]

General
Complete name : /[AniDub]_Shouwa_Genroku_Rakugo_Shinjuu_[01]_[720p].mp4
Format : MPEG-4
Format profile : Base Media
Codec ID : isom
File size : 639 MiB
Duration : 47mn 56s
Overall bit rate mode : Variable
Overall bit rate : 1 863 Kbps
Encoded date : UTC 2016-01-31 19:05:14
Tagged date : UTC 2016-01-31 19:05:14

Video
ID : 1
Format : AVC
Format/Info : Advanced Video Codec
Format profile : High@L4.1
Format settings, CABAC : Yes
Format settings, ReFrames : 4 frames
Codec ID : avc1
Codec ID/Info : Advanced Video Coding
Duration : 47mn 56s
Bit rate : 1 666 Kbps
Maximum bit rate : 11.2 Mbps
Width : 1 280 pixels
Height : 720 pixels
Display aspect ratio : 16:9
Frame rate mode : Constant
Frame rate : 23.976 fps
Color space : YUV
Chroma subsampling : 4:2:0
Bit depth : 8 bits
Scan type : Progressive
Bits/(Pixel*Frame) : 0.075
Stream size : 572 MiB (89%)
Title : 264
Writing library : x264 core 129 r2245+729M 1a52e03
Encoding settings : cabac=1 / ref=4 / deblock=1:1:-1 / analyse=0x3:0x113 / me=umh / subme=9 / psy=1 / fade_compensate=0.00 / psy_rd=1.00:0.00 / mixed_ref=1 / me_range=24 / chroma_me=1 / trellis=2 / 8x8dct=1 / cqm=0 / deadzone=21,11 / fast_pskip=1 / chroma_qp_offset=-2 / threads=8 / lookahead_threads=1 / sliced_threads=0 / nr=0 / decimate=1 / interlaced=0 / bluray_compat=0 / constrained_intra=0 / fgo=0 / bframes=9 / b_pyramid=2 / b_adapt=2 / b_bias=0 / direct=1 / weightb=1 / open_gop=0 / weightp=2 / keyint=240 / keyint_min=24 / scenecut=40 / intra_refresh=0 / rc=crf / mbtree=0 / crf=17.0 / qcomp=0.72 / qpmin=0 / qpmax=69 / qpstep=4 / ip_ratio=1.40 / pb_ratio=1.30 / aq=1:0.85
Encoded date : UTC 2016-01-09 12:12:20
Tagged date : UTC 2016-01-31 19:05:32
Color range : Limited
Color primaries : BT.709
Transfer characteristics : BT.709
Matrix coefficients : BT.709

Audio
ID : 2
Format : AAC
Format/Info : Advanced Audio Codec
Format profile : LC
Codec ID : 40
Duration : 47mn 56s
Bit rate mode : Variable
Bit rate : 192 Kbps
Maximum bit rate : 201 Kbps
Channel(s) : 2 channels
Channel positions : Front: L R
Sampling rate : 48.0 KHz
Compression mode : Lossy
Stream size : 65.9 MiB (10%)
Language : English
Encoded date : UTC 2016-01-31 19:05:22
Tagged date : UTC 2016-01-31 19:05:32


Описание:Жизнь чтеца в Японии всегда была не проста, а путь к всеобщему уважению и популярности был сложен и непредсказуем. Театр ракуго-место не для посредственностей! Каждый чтец имел свою манеру, свой стиль, однако не каждый мог достучатся до сердец слушателя. Молодому парню, только что вышедшему из мест заключения, втемяшило в голову, что чтец ракуго, это его путь и он отправляется прямиком к самому уважаемому чтецу Токио, дабы напросится в ученики. Но прошлое всегда остается пятном на судьбе человека: как на судьбе ученика, так и на судьбе наставника.
info [Профиль]  [ЛС] 
Показать сообщения:    
Ответить на тему

Текущее время: 11-Дек 08:14

Часовой пояс: GMT + 4



Вы не можете начинать темы
Вы не можете отвечать на сообщения
Вы не можете редактировать свои сообщения
Вы не можете удалять свои сообщения
Вы не можете голосовать в опросах
Вы не можете прикреплять файлы к сообщениям
Вы не можете скачивать файлы