Ошибка

Дешёвые сласти / Dagashi Kashi (TV) [1-12 из 12] [2016] [Комедия, сёнэн] [HDTV720p] [Любительский]

Ответить на тему
 
Автор Сообщение

Chel90RUS

Пол: Пол:Муж

Стаж: 5 лет 5 месяцев

Сообщений: 413

Россия
Рейтинг

post 11-Апр-2016 11:36 0[+]

[Цитировать] 

pic="http://static2.anidub.com/tracker/poster/8d93c803b2.jpg"
Дешёвые сласти
Dagashi Kashi / だがしかし

Год выпуска: 2016
Жанр: Комедия, сёнэн
Страна: Япония
Тип: HDTV
Продолжительность: 12 серий ~ 25 мин
Дата выпуска: c 08.01.2016 по 25.03.2016
Режиссер: Такаянаги Сигэхито
Автор оригинала / Сценарист: Котояма
Студия: Feel
Озвучено: Гамлетка Цезаревна, 9й Неизвестный
Перевод: Саюри
Тайминг и работа со звуком: 9й Неизвестный
Формат файла: Mp4
Аудио: Dolby AC3 48000Hz stereo 448kbps [A: ac3, 48000 Hz, stereo, 448 kb/s]
Видео: MPEG4 Video (H264) 1280x720 23.976fps 1696kbps [V: h264 high L4.1, yuv420p, 1280x720, 1696 kb/s]

General
Complete name : \[AniDub]_Dagashi_Kashi_[01]_[1280x720_x264]_[Hamletka_Cezarevna_9th_Unknown].mp4
Format : MPEG-4
Format profile : Base Media
Codec ID : isom
File size : 376 MiB
Duration : 24mn 30s
Overall bit rate : 2 146 Kbps
Encoded date : UTC 2016-01-09 21:53:21
Tagged date : UTC 2016-01-09 21:53:21

Video
ID : 1
Format : AVC
Format/Info : Advanced Video Codec
Format profile : High@L4.1
Format settings, CABAC : Yes
Format settings, ReFrames : 4 frames
Codec ID : avc1
Codec ID/Info : Advanced Video Coding
Duration : 24mn 29s
Bit rate : 1 696 Kbps
Maximum bit rate : 13.8 Mbps
Width : 1 280 pixels
Height : 720 pixels
Display aspect ratio : 16:9
Frame rate mode : Constant
Frame rate : 23.976 fps
Color space : YUV
Chroma subsampling : 4:2:0
Bit depth : 8 bits
Scan type : Progressive
Bits/(Pixel*Frame) : 0.077
Stream size : 297 MiB (79%)
Writing library : x264 core 129 r2245+729M 1a52e03
Encoding settings : cabac=1 / ref=4 / deblock=1:1:-1 / analyse=0x3:0x113 / me=umh / subme=9 / psy=1 / fade_compensate=0.00 / psy_rd=1.00:0.00 / mixed_ref=1 / me_range=24 / chroma_me=1 / trellis=2 / 8x8dct=1 / cqm=0 / deadzone=21,11 / fast_pskip=1 / chroma_qp_offset=-2 / threads=8 / lookahead_threads=1 / sliced_threads=0 / nr=0 / decimate=1 / interlaced=0 / bluray_compat=0 / constrained_intra=0 / fgo=0 / bframes=9 / b_pyramid=2 / b_adapt=2 / b_bias=0 / direct=1 / weightb=1 / open_gop=0 / weightp=2 / keyint=240 / keyint_min=24 / scenecut=40 / intra_refresh=0 / rc=crf / mbtree=0 / crf=18.5 / qcomp=0.72 / qpmin=0 / qpmax=69 / qpstep=4 / ip_ratio=1.40 / pb_ratio=1.30 / aq=1:0.85
Encoded date : UTC 2016-01-08 09:14:01
Tagged date : UTC 2016-01-09 21:53:26
Color range : Limited
Color primaries : BT.709
Transfer characteristics : BT.709
Matrix coefficients : BT.709

Audio
ID : 2
Format : AC-3
Format/Info : Audio Coding 3
Mode extension : CM (complete main)
Format settings, Endianness : Big
Codec ID : ac-3
Duration : 24mn 30s
Bit rate mode : Constant
Bit rate : 448 Kbps
Channel(s) : 2 channels
Channel positions : Front: L R
Sampling rate : 48.0 KHz
Bit depth : 16 bits
Compression mode : Lossy
Stream size : 78.5 MiB (21%)
Encoded date : UTC 2016-01-09 21:53:26
Tagged date : UTC 2016-01-09 21:53:26


Описание:Коконоцу Шикада — юный наследник семейного бизнеса, в отношении которого отец лелеет большие надежды. На месте Шикады любой молодой человек, обладающий деловой хваткой, был бы рад вверенному в его распоряжение прибыльному предприятию. Однако парень отказывается от наследства. Может показаться, что причина этому заключается в том, что под многозначительным словосочетанием «семейный бизнес» имеется в виду крошечный бесперспективный магазинчик сладостей, расположенный на отшибе. Но нет, дорогие дамы и господа. Шикада просто метит выше: он хочет стать известным сёдзё-мангакой!
Однажды летом в магазинчик наведывается эксцентричная девушка, которая представляется дочерью владельца крупной кондитерской компании с мировым именем. По ее словам, отец Шикады настоящая знаменитость среди японских конфетчиков, и, в связи с этим, она, Хотару Шидарэ, планирует рекрутировать его в штат семейной компании. Но папочка оказывается не лыком шит и согласится работать на стороне лишь при условии, что девушка сможет убедить его сына принять бразды правления над крошечным бесперспективным магазинчиком сладостей, расположенном на отшибе.
Joseph
info [Профиль]  [ЛС] 
Показать сообщения:    
Ответить на тему

Текущее время: 11-Дек 04:19

Часовой пояс: GMT + 4



Вы не можете начинать темы
Вы не можете отвечать на сообщения
Вы не можете редактировать свои сообщения
Вы не можете удалять свои сообщения
Вы не можете голосовать в опросах
Вы не можете прикреплять файлы к сообщениям
Вы не можете скачивать файлы