Ошибка

Терраформеры / Terraformars [TV] [13 из 13] [2014] [Фантастика, Экшен, Ужасы] [BDRip] [720p] [Субтитры (JAP)]

Ответить на тему
 
Автор Сообщение

anoningen

Стаж: 4 года 6 месяцев

Сообщений: 543

Самоа
Рейтинг

post 07-Апр-2016 12:59 1[+]

[Цитировать] 

Терраформеры
Terraformars | テラフォーマーズ

Год выпуска:
2014 г.
Тип: TV
Жанр: Фантастика, Экшен, Ужасы
Режиссер: Хамасаки Хироси
Автор оригинала: Сасуга Ю
Студия:
Продолжительность: 13 эп. по 25 мин
Русские субтитры: ASS, внешним файлом

Переводчик: Anku
Редактор: mutagenb

Описание: Вместе с космической программой, включающей в себя полет к Марсу, ученые 21 века пытаются разработать способы повышения температуры Красной планеты таким образом, чтобы люди смогли выжить на ее поверхности. Они придумывают экономически эффективный и рентабельный план отправки тараканов и мха. По плану ученых, мох будет поглощать солнечный свет, а трупы быстро размножающихся насекомых будут служить отличным источником пищи для неё.

2577 год. Первый пилотируемый корабль с шестью членами экипажа, специально подготовленными колонистами, высаживается на Марс. Но первые живые существа, которых они обнаруживают - это гигантские человекоподобные тараканы, наделенные невероятной физической силой. Колонисты погибают, едва успев связаться с Землей.
Теперь, человечество будет отправлять элитных воинов, чтобы уничтожить мутировавших насекомых и вернуть Марс под контроль человечества. Процесс терраформирования начался!
Автор рипа: [VOSTFR]
Качество: BDRip
Формат видео: MPEG-4
Видео: AVC, 8 бит, 1280x720; 23.976 кадра/сек; 2299 Кбит/сек, (16:9)
Аудио: AC-3, 48,0 КГц, переменный 224 Кбит/сек, 2 канала
Общее
Уникальный идентификатор : 235619181329039105022813763886707335757 (0xB1429A8ABB0577E08E676D812773624D)
Полное имя : G:\Anime\Terra Formars\Terra Formars 01.mkv
Формат : Matroska
Версия формата : Version 4 / Version 2
Размер файла : 427 Мбайт
Продолжительность : 23 м.
Общий поток : 2523 Кбит/сек
Название фильма : Terra.Formars : Episode 1 [BD-720P] BY SiDERAL
Дата кодирования : UTC 2015-12-23 13:01:56
Программа кодирования : mkvmerge v8.2.0 ('World of Adventure') 64bit
Библиотека кодирования : libebml v1.3.1 + libmatroska v1.4.2

Видео
Идентификатор : 1
Формат : AVC
Формат/Информация : Advanced Video Codec
Профиль формата : High@L4.1
Параметр CABAC формата : Да
Параметр ReFrames формата : 6 кадров
Идентификатор кодека : V_MPEG4/ISO/AVC
Продолжительность : 23 м.
Битрейт : 2299 Кбит/сек
Ширина : 1280 пикселей
Высота : 720 пикселей
Соотношение сторон : 16:9
Режим частоты кадров : Постоянный
Частота кадров : 23,976 (24000/1001) кадра/сек
Цветовое пространство : YUV
Субдискретизация насыщенности : 4:2:0
Битовая глубина : 8 бит
Тип развёртки : Прогрессивная
Бит/(Пиксели*Кадры) : 0.104
Размер потока : 389 Мбайт (91%)
Библиотека кодирования : x264 core 146 r2538 121396c
Настройки программы : cabac=1 / ref=6 / deblock=1:1:1 / analyse=0x3:0x133 / me=esa / subme=9 / psy=1 / psy_rd=0.40:0.00 / mixed_ref=1 / me_range=28 / chroma_me=1 / trellis=2 / 8x8dct=1 / cqm=0 / deadzone=21,11 / fast_pskip=1 / chroma_qp_offset=-2 / threads=6 / lookahead_threads=1 / sliced_threads=0 / nr=0 / decimate=1 / interlaced=0 / bluray_compat=0 / constrained_intra=0 / bframes=3 / b_pyramid=2 / b_adapt=2 / b_bias=0 / direct=3 / weightb=1 / open_gop=0 / weightp=2 / keyint=240 / keyint_min=23 / scenecut=40 / intra_refresh=0 / rc_lookahead=60 / rc=2pass / mbtree=1 / bitrate=2299 / ratetol=1.0 / qcomp=0.60 / qpmin=10 / qpmax=51 / qpstep=4 / cplxblur=20.0 / qblur=0.5 / vbv_maxrate=62500 / vbv_bufsize=78125 / nal_hrd=none / filler=0 / ip_ratio=1.40 / aq=1:1.30
Default : Да
Forced : Нет

Аудио
Идентификатор : 2
Формат : AC-3
Формат/Информация : Audio Coding 3
Расширение режима : CM (complete main)
Параметр Endianness формата : Big
Идентификатор кодека : A_AC3
Продолжительность : 23 м.
Вид битрейта : Постоянный
Битрейт : 224 Кбит/сек
Каналы : 2 канала
Расположение каналов : Front: L R
Частота : 48,0 КГц
Частота кадров : 31,250 кадров/сек (1536 spf)
Метод сжатия : С потерями
Размер потока : 37,9 Мбайт (9%)
Заголовок : AC3 2.0 [224 Kbps]
Язык : Japanese
Default : Нет
Forced : Нет

Текст #1
Идентификатор : 3
Формат : UTF-8
Идентификатор кодека : S_TEXT/UTF8
Идентификатор кодека/Информация : UTF-8 Plain Text
Продолжительность : 21 м.
Битрейт : 3 бит/сек
Count of elements : 17
Размер потока : 552 байт (0%)
Заголовок : Forced - [SRT]
Язык : French
Default : Нет
Forced : Нет

Текст #2
Идентификатор : 4
Формат : UTF-8
Идентификатор кодека : S_TEXT/UTF8
Идентификатор кодека/Информация : UTF-8 Plain Text
Продолжительность : 23 м.
Битрейт : 65 бит/сек
Count of elements : 295
Размер потока : 11,3 Кбайт (0%)
Заголовок : VOSTFR - [SRT]
Язык : French
Default : Да
Forced : Да

Меню
00:00:00.000 : en:Chapter 1
00:01:56.116 : en:Chapter 2
00:12:45.765 : en:Chapter 3
00:21:10.269 : en:Chapter 4
00:22:59.378 : en:Chapter 5
00:23:36.540 : en:Chapter 6
00:23:40.043 : en:Chapter 7
info [Профиль]  [ЛС] 
V0id

post 07-Апр-2016 20:17 (спустя 7 часов) -47      заценить

WereVolf

Пол: Пол:Муж

Стаж: 8 лет 4 месяца

Сообщений: 45

Предупреждений: 1

Россия
Рейтинг

post 07-Апр-2016 21:50 (спустя 1 час 32 минуты) [-]-3[+]

[Цитировать] 

anoningen
если бдешка я так полагаю без цезуры?
info [Профиль]  [ЛС] 

anoningen

Стаж: 4 года 6 месяцев

Сообщений: 543

Самоа
Рейтинг

post 07-Апр-2016 21:51 (спустя 1 минута) [-]-1[+]

[Цитировать] 

WereVolf
Так и есть.
info [Профиль]  [ЛС] 
Показать сообщения:    
Ответить на тему

Текущее время: 22-Ноя 13:19

Часовой пояс: GMT + 4



Вы не можете начинать темы
Вы не можете отвечать на сообщения
Вы не можете редактировать свои сообщения
Вы не можете удалять свои сообщения
Вы не можете голосовать в опросах
Вы не можете прикреплять файлы к сообщениям
Вы не можете скачивать файлы