Ошибка

Восхваляемый: фальшивая маска / Utawarerumono: Itsuwari no Kamen (TV-2) [1-25 из 25] [2015] [Приключения, фэнтези, фантастика, комедия] [BDRip1080p] [Профессиональная (Многоголосая)]

Ответить на тему
 
Автор Сообщение

Chel90RUS

Пол: Пол:Муж

Стаж: 5 лет 5 месяцев

Сообщений: 413

Россия
Рейтинг

post 27-Мар-2016 21:46 0[+]

[Цитировать] 

pic="http://static2.anidub.com/tracker/poster/68924b8ab9.jpg"
Восхваляемый: фальшивая маска
Utawarerumono: The False Faces / Utawarerumono: Itsuwari no Kamen / うたわれるもの 偽りの仮面

Год выпуска: 2015
Жанр: Приключения, фэнтези, фантастика, комедия
Страна: Япония
Тип: BDRip
Продолжительность: 25 серий ~ 25 мин
Дата выпуска: c 04.10.2015 по 27.03.2016
Режиссер: Мотонага Кэйтаро
Автор оригинала / Сценарист: Коно Такамицу
Озвучено: Студийная банда AD Давид Петросян, Влад Дуров, Гамлетка Цезаревна, 9й Неизвестный, Торгиль, Demetra, Esther, JAM, BalFor, Cuba77
Перевод: FooBoo
Тайминг и работа со звуком: Al'pair
Студия: White Fox
Аудио: AAC 48000Hz stereo 191kbps [A: Russian [rus] (aac lc, 48000 Hz, stereo, 191 kb/s)]
Видео: MPEG4 Video (H264) 1920x1080 23.976fps 4282kbps [V: h264 high 10 L4.1, yuv420p10le, 1920x1080, 4282 kb/s]

General
Complete name : \[AniDub]_Utawarerumono_Itsuwari_no_Kamen_[01]_[BDRip_1920x1080_x264_Aac]_[ADStudio].mp4
Format : MPEG-4
Format profile : Base Media
Codec ID : isom
File size : 808 MiB
Duration : 25mn 13s
Overall bit rate mode : Variable
Overall bit rate : 4 479 Kbps
Encoded date : UTC 2016-11-07 22:41:25
Tagged date : UTC 2016-11-07 22:41:25
Writing application : Yamb 2.1.0.0
Video
ID : 1
Format : AVC
Format/Info : Advanced Video Codec
Format profile : High 10@L4.1
Format settings, CABAC : Yes
Format settings, ReFrames : 4 frames
Codec ID : avc1
Codec ID/Info : Advanced Video Coding
Duration : 25mn 13s
Bit rate : 4 283 Kbps
Maximum bit rate : 33.6 Mbps
Width : 1 920 pixels
Height : 1 080 pixels
Display aspect ratio : 16:9
Frame rate mode : Constant
Frame rate : 23.976 fps
Color space : YUV
Chroma subsampling : 4:2:0
Bit depth : 10 bits
Scan type : Progressive
Bits/(Pixel*Frame) : 0.086
Stream size : 773 MiB (96%)
Writing library : x264 core 148 r2692 64f4e24
Encoding settings : cabac=1 / ref=4 / deblock=1:-2:-2 / analyse=0x3:0x133 / me=umh / subme=9 / psy=1 / psy_rd=0.60:0.00 / mixed_ref=1 / me_range=32 / chroma_me=1 / trellis=2 / 8x8dct=1 / cqm=0 / deadzone=21,11 / fast_pskip=1 / chroma_qp_offset=-2 / threads=24 / lookahead_threads=4 / sliced_threads=0 / nr=0 / decimate=0 / interlaced=0 / bluray_compat=0 / constrained_intra=0 / bframes=8 / b_pyramid=2 / b_adapt=2 / b_bias=0 / direct=3 / weightb=1 / open_gop=0 / weightp=2 / keyint=250 / keyint_min=23 / scenecut=40 / intra_refresh=0 / rc=crf / mbtree=0 / crf=16.0 / qcomp=0.60 / qpmin=10 / qpmax=38 / qpstep=4 / ip_ratio=1.40 / pb_ratio=1.30 / aq=1:0.95
Encoded date : UTC 2016-11-07 22:41:25
Tagged date : UTC 2016-11-07 22:43:56

Audio
ID : 2
Format : AAC
Format/Info : Advanced Audio Codec
Format profile : LC
Codec ID : 40
Duration : 25mn 13s
Bit rate mode : Variable
Bit rate : 192 Kbps
Maximum bit rate : 218 Kbps
Channel(s) : 2 channels
Channel positions : Front: L R
Sampling rate : 48.0 KHz
Compression mode : Lossy
Stream size : 34.6 MiB (4%)
Language : Russian
Encoded date : UTC 2016-11-07 22:43:52
Tagged date : UTC 2016-11-07 22:43:56


Описание:Когда я пришел в себя, то понял, что стою посереди огромной снежной равнины, не имея ни малейшего представления о ней. Я не знал, как туда попал. Более того, я не мог вспомнить ничего, даже свое имя. Я стоял там, ошарашенный этой абсурдной ситуацией. Но это было не худшее, что могло случиться. В то же время, как назло, откуда ни возьмись вдруг появился гигантский монстр, который начал угрожающе надвигаться на меня. Я отчаянно пытался бежать, но он загнал меня в угол. Тогда и появились девушка по имени Куон. Именно эта красавица с ушками и хвостиком спасла меня.
Качество теперь BDRip1080p
info [Профиль]  [ЛС] 

teshigawara1

Пол: Пол:Муж

Стаж: 3 года 11 месяцев

Сообщений: 42

Россия
Рейтинг

post 27-Мар-2016 23:38 (спустя 1 час 52 минуты) [-]0[+]

[Цитировать] 

Сабов не будет?
info [Профиль]  [ЛС] 

Chel90RUS

Пол: Пол:Муж

Стаж: 5 лет 5 месяцев

Сообщений: 413

Россия
Рейтинг

post 14-Ноя-2016 08:35 (спустя 7 месяцев 17 дней) [-]0[+]

[Цитировать] 

Качество теперь BDRip1080p

_________________
info [Профиль]  [ЛС] 

Denis Andreevich

Пол: Пол:Муж

Стаж: 4 года 11 месяцев

Сообщений: 49

Россия
Рейтинг

post 15-Ноя-2016 11:15 (спустя 1 день 2 часа) [-]0[+]

[Цитировать] 

Почему серий всего 24? 10 серии нет в раздаче

_________________
MSI Z77 MPOWER, 16GB Corsair, I7 3770k, GTX 780Ti
info [Профиль]  [ЛС] 

Chel90RUS

Пол: Пол:Муж

Стаж: 5 лет 5 месяцев

Сообщений: 413

Россия
Рейтинг

post 16-Ноя-2016 00:05 (спустя 12 часов) [-]0[+]

[Цитировать] 

Denis Andreevich писал(а):

Почему серий всего 24? 10 серии нет в раздаче
Исправлено

_________________
info [Профиль]  [ЛС] 
Показать сообщения:    
Ответить на тему

Текущее время: 08-Дек 06:13

Часовой пояс: GMT + 4



Вы не можете начинать темы
Вы не можете отвечать на сообщения
Вы не можете редактировать свои сообщения
Вы не можете удалять свои сообщения
Вы не можете голосовать в опросах
Вы не можете прикреплять файлы к сообщениям
Вы не можете скачивать файлы