Ошибка

Хороший динозавр / The Good Dinosaur (Питер Сон / Peter Sohn) [2015, мультфильм, фэнтези, комедия, BDRip-AVC] Dub [Лицензия]

Ответить на тему
 
Автор Сообщение

potroks

Пол: Пол:Муж

Стаж: 3 года 8 месяцев

Сообщений: 51

СССР
Рейтинг

post 20-Мар-2016 01:03 2[+]

[Цитировать] 

Хороший динозавр / The Good Dinosaur

«Tiny but tough»

Год выпуска: 2015
Страна: США / Pixar Animation Studios, Walt Disney Pictures
Жанр: мультфильм, фэнтези, комедия, приключения, семейный
Продолжительность: 01:33:50
Перевод: Дубляж [BD CEE]
Субтитры: русские (полные (х2) + форс.), английские (Full + SDH)
Навигация по главам: есть

Режиссер: Питер Сон / Peter Sohn
В ролях:

Джеффри Райт (Poppa, озвучка), Фрэнсис МакДорманд (Momma, озвучка), Малиа Нипай-Падилья (Young Libby, озвучка), Райан Типл (Young Buck, озвучка), Джек МакГроу (Young Arlo, озвучка), Маркус Скрибнер (Buck, озвучка), Рэймонд Очоа (Arlo, озвучка), Джек Брайт (Spot, озвучка), Питер Сон (Pet Collector, озвучка), Стив Зан (Thunderclap, озвучка), Мэнди Фройнд (Downpour, озвучка), Стивен Клэй Хантер (Coldfront, озвучка)
Описание: По сюжету динозавры не вымерли, а эволюционировали в разумных существ и живут и здравствуют на Земле. А вот люди остались на довольно примитивной стадии развития. Фильм расскажет историю дружбы динозавра и маленького мальчика.
| |
Качество: BDRip-AVC
Формат: MKV
Видео кодек: AVC
Аудио кодек: AC3
Видео: 1032x432 (2.40:1), 2430 kbps, 23,976 fps, 0,227 bit/pixel
Аудио №1: AC3 / 5.1 / 48 kHz / 448 kbps / 16 bit | RUS
Аудио №2: AC3 / 5.1 / 48 kHz / 448 kbps / 16 bit | ENG

Код:

Общее
Уникальный идентификатор : 192637052506347791550811607366882057079 (0x90EC8BF9E8828576A33842E8EC505B77)
Полное имя : Horoshyi.Dinozavr.2015.DUAL.BDRip.x264.-HELLYWOOD.mkv
Формат : Matroska
Версия формата : Version 4 / Version 2
Размер файла : 2,18 Гбайт
Продолжительность : 1 ч. 33 м.
Общий поток : 3328 Кбит/сек
Название фильма : The Good Dinosaur (2015) - HELLYWOOD
Дата кодирования : UTC 2016-03-19 20:18:56
Программа кодирования : mkvmerge v5.9.0 ('On The Loose') built on Dec 15 2012 16:39:58
Библиотека кодирования : libebml v1.3.0 + libmatroska v1.4.0

Видео
Идентификатор : 1
Формат : AVC
Формат/Информация : Advanced Video Codec
Профиль формата : High@L4.1
Параметр CABAC формата : Да
Параметр ReFrames формата : 10 кадров
Идентификатор кодека : V_MPEG4/ISO/AVC
Продолжительность : 1 ч. 33 м.
Битрейт : 2430 Кбит/сек
Ширина : 1032 пикселя
Высота : 432 пикселя
Соотношение сторон : 2,40:1
Режим частоты кадров : Постоянный
Частота кадров : 23,976 кадра/сек
Цветовое пространство : YUV
Субдискретизация насыщенности : 4:2:0
Битовая глубина : 8 бит
Тип развёртки : Прогрессивная
Бит/(Пиксели*Кадры) : 0.227
Размер потока : 1,55 Гбайт (71%)
Заголовок : potroks
Библиотека кодирования : x264 core 146 r2538 121396c
Настройки программы : cabac=1 / ref=10 / deblock=1:-1:-1 / analyse=0x3:0x113 / me=umh / subme=11 / psy=1 / psy_rd=1.00:0.05 / mixed_ref=1 / me_range=32 / chroma_me=1 / trellis=2 / 8x8dct=1 / cqm=0 / deadzone=21,11 / fast_pskip=0 / chroma_qp_offset=-3 / threads=9 / lookahead_threads=2 / sliced_threads=0 / nr=0 / decimate=0 / interlaced=0 / bluray_compat=0 / constrained_intra=0 / bframes=11 / b_pyramid=2 / b_adapt=2 / b_bias=0 / direct=3 / weightb=1 / open_gop=0 / weightp=2 / keyint=240 / keyint_min=23 / scenecut=40 / intra_refresh=0 / rc_lookahead=60 / rc=2pass / mbtree=0 / bitrate=2430 / ratetol=1.0 / qcomp=0.70 / qpmin=0 / qpmax=69 / qpstep=4 / cplxblur=20.0 / qblur=0.5 / vbv_maxrate=14000 / vbv_bufsize=14000 / nal_hrd=none / filler=0 / ip_ratio=1.35 / pb_ratio=1.25 / aq=1:0.80
Язык : English
Default : Да
Forced : Нет

Аудио #1
Идентификатор : 2
Формат : AC-3
Формат/Информация : Audio Coding 3
Расширение режима : CM (complete main)
Параметр Endianness формата : Big
Идентификатор кодека : A_AC3
Продолжительность : 1 ч. 33 м.
Вид битрейта : Постоянный
Битрейт : 448 Кбит/сек
Каналы : 6 каналов
Расположение каналов : Front: L C R, Side: L R, LFE
Частота : 48,0 КГц
Метод сжатия : С потерями
Размер потока : 301 Мбайт (13%)
Заголовок : Dub | DD 5.1 @ 448 kbps - Blu-Ray CEE
Язык : Russian
Default : Да
Forced : Нет

Аудио #2
Идентификатор : 3
Формат : AC-3
Формат/Информация : Audio Coding 3
Расширение режима : CM (complete main)
Параметр Endianness формата : Big
Идентификатор кодека : A_AC3
Продолжительность : 1 ч. 33 м.
Вид битрейта : Постоянный
Битрейт : 448 Кбит/сек
Каналы : 6 каналов
Расположение каналов : Front: L C R, Side: L R, LFE
Частота : 48,0 КГц
Метод сжатия : С потерями
Размер потока : 301 Мбайт (13%)
Заголовок : Original | DD 5.1 @ 448 kbps
Язык : English
Default : Нет
Forced : Нет

Текст #1
Идентификатор : 4
Формат : UTF-8
Идентификатор кодека : S_TEXT/UTF8
Идентификатор кодека/Информация : UTF-8 Plain Text
Заголовок : Forced
Язык : Russian
Default : Да
Forced : Нет

Текст #2
Идентификатор : 5
Формат : UTF-8
Идентификатор кодека : S_TEXT/UTF8
Идентификатор кодека/Информация : UTF-8 Plain Text
Заголовок : Blu-Ray
Язык : Russian
Default : Нет
Forced : Нет

Текст #3
Идентификатор : 6
Формат : UTF-8
Идентификатор кодека : S_TEXT/UTF8
Идентификатор кодека/Информация : UTF-8 Plain Text
Язык : Russian
Default : Нет
Forced : Нет

Текст #4
Идентификатор : 7
Формат : UTF-8
Идентификатор кодека : S_TEXT/UTF8
Идентификатор кодека/Информация : UTF-8 Plain Text
Заголовок : Full
Язык : English
Default : Нет
Forced : Нет

Текст #5
Идентификатор : 8
Формат : UTF-8
Идентификатор кодека : S_TEXT/UTF8
Идентификатор кодека/Информация : UTF-8 Plain Text
Заголовок : SDH
Язык : English
Default : Нет
Forced : Нет

Меню
00:00:00.000 : en:Chapter 01
00:03:37.967 : en:Chapter 02
00:06:16.459 : en:Chapter 03
00:08:14.160 : en:Chapter 04
00:12:12.606 : en:Chapter 05
00:14:33.914 : en:Chapter 06
00:17:42.352 : en:Chapter 07
00:21:10.644 : en:Chapter 08
00:22:58.168 : en:Chapter 09
00:26:41.057 : en:Chapter 10
00:29:02.615 : en:Chapter 11
00:33:10.363 : en:Chapter 12
00:35:28.668 : en:Chapter 13
00:38:14.458 : en:Chapter 14
00:41:08.841 : en:Chapter 15
00:45:42.948 : en:Chapter 16
00:47:47.948 : en:Chapter 17
00:51:48.271 : en:Chapter 18
00:55:46.968 : en:Chapter 19
01:00:22.952 : en:Chapter 20
01:03:59.001 : en:Chapter 21
01:05:27.214 : en:Chapter 22
01:07:11.777 : en:Chapter 23
01:11:06.428 : en:Chapter 24
01:13:43.377 : en:Chapter 25
01:16:01.431 : en:Chapter 26
01:19:08.493 : en:Chapter 27
01:23:56.865 : en:Chapter 28
01:26:01.114 : en:Chapter 29
info [Профиль]  [ЛС] 

post 20-Мар-2016 10:25 (спустя 9 часов) [-]0[+]

Топик был перенесен из форума Зарубежные полнометражные мультфильмы в форум Новинки 2015-2016 (Rips)

BZzz
 

w0rn

Стаж: 3 года

Сообщений: 62

Рейтинг

post 20-Мар-2016 11:40 (спустя 10 часов) [-]1[+]

[Цитировать] 

Мультик классный, за релиз ничего не скажу качал с другого места.
info [Профиль]  [ЛС] 

leSang

Пол: Пол:Муж

Стаж: 7 лет 8 месяцев

Сообщений: 923

Япония
Рейтинг

post 21-Мар-2016 01:05 (спустя 13 часов) [-]1[+]

[Цитировать] 

герои странные
10 ландшафтов из 10

_________________
info [Профиль]  [ЛС] 

punisher509

Пол: Пол:Муж

Стаж: 4 года 7 месяцев

Сообщений: 56

СССР
Рейтинг

post 23-Мар-2016 18:32 (спустя 2 дня 17 часов) [-]0[+]

[Цитировать] 

Душевный мульт........
info [Профиль]  [ЛС] 

post 21-Июл-2016 11:06 (спустя 3 месяца 28 дней) [-]0[+]

Топик был перенесен из форума Новинки 2015-2016 (Rips) в форум Зарубежные полнометражные мультфильмы

Formula
 
Показать сообщения:    
Ответить на тему

Текущее время: 04-Дек 22:23

Часовой пояс: GMT + 4



Вы не можете начинать темы
Вы не можете отвечать на сообщения
Вы не можете редактировать свои сообщения
Вы не можете удалять свои сообщения
Вы не можете голосовать в опросах
Вы не можете прикреплять файлы к сообщениям
Вы не можете скачивать файлы