Ошибка

До окончания фрилича осталось:


Аладдин: Трилогия / Aladdin: Trilogy (Рон Клементс/Ron Clements, Джон Маскер/John Musker, Тоби Шелтон/Toby Shelton, Тэд Стоунс/Tad Stones, Алан Заслов/Alan Zaslove) [1992-1996, мультфильм, фэнтези, комедия, приключения, семейный, BDRip 1080p]

Ответить на тему

Обновить раздачу до BDRip 1080p?

Да   76%  76%  [ 43 ]
Нет   8%  8%  [ 5 ]
Плевать   14%  14%  [ 8 ]

Всего проголосовало : 56

 
Автор Сообщение

smashenemies

Пол: Пол:Муж

Стаж: 1 год 11 месяцев

Сообщений: 3

Украина
Рейтинг

post 08-Мар-2016 19:46 7[+]

[Цитировать] 


Аладдин / Aladdin

Год выпуска: 1992
Страна: США
Жанр: мультфильм, мюзикл, мелодрама, фэнтези, комедия, приключения, семейный
Продолжительность: 01:30:24
Перевод: Профессиональный (полное дублирование) [лицензия]
Субтитры: Отсутствуют
Режиссер:
  • Рон Клементс/Ron Clements, Джон Маскер/John Musker
В ролях:
  • Скотт Венгер/Scott Weinger, Робин Уильямс/Robin Williams, Линда Ларкин/Linda Larkin, Джонатан Фриман/Jonathan Freeman, Фрэнк Уэлкер/Frank Welker, Гилберт Готтфрид/Gilbert Gottfried, Дуглас Сил/Douglas Seale, Чарльз Адлер/Charles Adler, Джек Эйнджел/Jack Angel и др.

Описание: В славном граде Аграба живет Аладдин, веселый воришка с золотым сердцем. Живет и не знает, что вскоре его ждет величайшее приключение в жизни. Ведь только с его помощью черный маг Джафар может овладеть невероятным сокровищем — лампой, в которой заключен исполняющий желания могущественный Джинн. И только хитроумие, смекалка и доброта Аладдина и его друзей — обезьянки Абу, принцессы Джасмин и самого Джинна способны помешать Джафару завладеть лампой и захватить власть над миром…

Качество: BDRip 1080p
Формат: MKV
Видео кодек: AVC
Аудио кодек: AC-3
Видео: 1920 х 1080, 16:9, 24 fps, 11 mbps
Аудио 1: Russian, AC3 5.1 @ 384 kbps, 6 ch, 48 KHz (Дубляж)
Аудио 2: English, AC3 5.1 @ 448 kbps, 6 ch, 48 KHz (Оригинал)
Общее
Уникальный идентификатор : 205006965386451538484069182989190083858 (0x9A3AE7C4A9725354BC361F95EF7CB512)
Полное имя : E:\Movies\Аладдин Трилогия [Aladdin Trilogy]\1.Аладдин [Aladdin].mkv
Формат : Matroska
Версия формата : Version 4 / Version 2
Размер файла : 7,36 Гбайт
Продолжительность : 1 ч. 30 м.
Общий поток : 11,7 Мбит/сек
Название фильма : Аладдин / Aladdin (1992)
Дата кодирования : UTC 2016-03-09 12:24:53
Программа кодирования : mkvmerge v8.9.0 ('Father Daughter') 64bit
Библиотека кодирования : libebml v1.3.3 + libmatroska v1.4.4

Видео
Идентификатор : 1
Формат : AVC
Формат/Информация : Advanced Video Codec
Профиль формата : High@L5.1
Параметр CABAC формата : Да
Параметр ReFrames формата : 16 кадров
Идентификатор кодека : V_MPEG4/ISO/AVC
Продолжительность : 1 ч. 30 м.
Битрейт : 10,8 Мбит/сек
Ширина : 1920 пикселей
Высота : 1080 пикселей
Соотношение сторон : 16:9
Режим частоты кадров : Постоянный
Частота кадров : 23,976 (24000/1001) кадра/сек
Цветовое пространство : YUV
Субдискретизация насыщенности : 4:2:0
Битовая глубина : 8 бит
Тип развёртки : Прогрессивная
Бит/(Пиксели*Кадры) : 0.218
Размер потока : 6,83 Гбайт (93%)
Заголовок : Аладдин / Aladdin
Библиотека кодирования : x264 core 65 r1028M 83baa7f
Настройки программы : cabac=1 / ref=16 / deblock=1:-3:-3 / analyse=0x3:0x133 / me=hex / subme=6 / psy_rd=1.0:0.0 / mixed_ref=0 / me_range=16 / chroma_me=1 / trellis=1 / 8x8dct=1 / cqm=0 / deadzone=21,11 / chroma_qp_offset=-2 / threads=1 / nr=0 / decimate=1 / mbaff=0 / bframes=3 / b_pyramid=1 / b_adapt=1 / b_bias=0 / direct=2 / wpredb=1 / keyint=250 / keyint_min=25 / scenecut=40 / rc=2pass / bitrate=10817 / ratetol=1.0 / qcomp=0.60 / qpmin=10 / qpmax=51 / qpstep=4 / cplxblur=20.0 / qblur=0.5 / ip_ratio=1.40 / pb_ratio=1.30 / aq=1:1.00
Язык : English
Default : Да
Forced : Нет

Аудио #1
Идентификатор : 2
Формат : AC-3
Формат/Информация : Audio Coding 3
Расширение режима : CM (complete main)
Параметр Endianness формата : Big
Идентификатор кодека : A_AC3
Продолжительность : 1 ч. 30 м.
Вид битрейта : Постоянный
Битрейт : 384 Кбит/сек
Каналы : 6 каналов
Расположение каналов : Front: L C R, Side: L R, LFE
Частота : 48,0 КГц
Частота кадров : 31,250 кадров/сек (1536 spf)
Метод сжатия : С потерями
Размер потока : 248 Мбайт (3%)
Заголовок : Russian AC3 5.1ch 384kbps(Дубляж)
Язык : Russian
Default : Нет
Forced : Нет

Аудио #2
Идентификатор : 3
Формат : AC-3
Формат/Информация : Audio Coding 3
Расширение режима : CM (complete main)
Параметр Endianness формата : Big
Идентификатор кодека : A_AC3
Продолжительность : 1 ч. 30 м.
Вид битрейта : Постоянный
Битрейт : 448 Кбит/сек
Каналы : 6 каналов
Расположение каналов : Front: L C R, Side: L R, LFE
Частота : 48,0 КГц
Частота кадров : 31,250 кадров/сек (1536 spf)
Метод сжатия : С потерями
Размер потока : 290 Мбайт (4%)
Заголовок : English AC3 5.1ch 448kb(Английский)
Язык : English
Default : Нет
Forced : Нет

Аладдин - возвращение Джафара / Aladdin - The Return of Jafar

Год выпуска: 1994
Страна: США
Жанр: мультфильм, мюзикл, мелодрама, фэнтези, комедия, приключения, семейный
Продолжительность: 01:06:16
Перевод: Профессиональный (полное дублирование) [лицензия]
Субтитры: Отсутствуют
Режиссер:
  • Тоби Шелтон/Toby Shelton, Тэд Стоунс/Tad Stones, Алан Заслов/Alan Zaslove
В ролях:
  • Джейсон Александер/Jason Alexander, Джонатан Фриман/Jonathan Freeman, Джефф Беннетт/Jeff Bennett, Гилберт Готтфрид/Gilbert Gottfried, Вэл Бэттин/Val Bettin, Брэд Кэйн/Brad Kane, Лиз Колэуэй/Liz Callaway, Линда Ларкин/Linda Larkin и др.

Описание: Продолжение волшебной сказки об Аладдине. Вторая часть захватывающей трилогии о храбром уличном воришке начинается прямо там, где закончился первый мультфильм. Уже казалось бы, что черному чародею и новоявленному джинну Джафару суждено навеки остаться пленником волшебной лампы, — но ему удается освободиться! И на уме у коварного злодея лишь одно: он жаждет отомстить Аладдину… А тем временем, в Аграбе жизнь идет своим чередом. Неунывающий проказник Джинн вернулся из кругосветного путешествия, и рассказывает друзьям невероятные истории о своих приключениях. Но счастье продлится недолго. Нашим героям вновь придется встретиться с Джафаром лицом к лицу, и им пригодится вся их магия и отвага.

Качество: BDRip 1080p
Формат: MKV
Видео кодек: AVC
Аудио кодек: AC-3
Видео: 1920 х 1080, 16:9, 24 fps, 12 mbps
Аудио 1: Russian, AC3 5.1 @ 640 kbps, 6 ch, 48 KHz (Дубляж)
Общее
Уникальный идентификатор : 168348648403719580577546155723716462494 (0x7EA6C532C2870C1E037BA147C20E879E)
Полное имя : E:\Movies\Аладдин\2.Аладдин - возвращение Джафара [Aladdin - The Return of Jafar].mkv
Формат : Matroska
Версия формата : Version 2
Размер файла : 6,11 Гбайт
Продолжительность : 1 ч. 9 м.
Режим общего битрейта : Переменный
Общий поток : 12,7 Мбит/сек
Программа кодирования : Lavf51.12.1
Библиотека кодирования : Lavf51.12.1

Видео
Идентификатор : 1
Формат : AVC
Формат/Информация : Advanced Video Codec
Профиль формата : Baseline@L4
Параметр CABAC формата : Нет
Параметр ReFrames формата : 1 кадр
Параметр GOP формата : M=1, N=12
Идентификатор кодека : V_MPEG4/ISO/AVC
Продолжительность : 1 ч. 9 м.
Вид битрейта : Переменный
Битрейт : 11,8 Мбит/сек
Максимальный битрейт : 18,0 Мбит/сек
Ширина : 1920 пикселей
Высота : 1080 пикселей
Соотношение сторон : 16:9
Режим частоты кадров : Постоянный
Частота кадров : 24,000 кадра/сек
Цветовое пространство : YUV
Субдискретизация насыщенности : 4:2:0
Битовая глубина : 8 бит
Тип развёртки : Прогрессивная
Бит/(Пиксели*Кадры) : 0.236
Размер потока : 5,68 Гбайт (93%)
Default : Да
Forced : Нет

Аудио
Идентификатор : 2
Формат : AC-3
Формат/Информация : Audio Coding 3
Расширение режима : CM (complete main)
Параметр Endianness формата : Big
Идентификатор кодека : A_AC3
Продолжительность : 1 ч. 9 м.
Вид битрейта : Постоянный
Битрейт : 640 Кбит/сек
Каналы : 6 каналов
Расположение каналов : Front: L C R, Side: L R, LFE
Частота : 48,0 КГц
Частота кадров : 31,250 кадров/сек (1536 spf)
Битовая глубина : 32 бит
Метод сжатия : С потерями
Размер потока : 317 Мбайт (5%)
Default : Да
Forced : Нет

Аладдин и король разбойников / Aladdin and the King of Thieves



Год выпуска: 1996
Страна: США
Жанр: мультфильм, мюзикл, мелодрама, фэнтези, комедия, приключения, семейный
Продолжительность: 01:18:18
Перевод: Профессиональный (полное дублирование) [лицензия]
Субтитры: Отсутствуют
Режиссер:
  • Тэд Стоунс/Tad Stones
В ролях:
  • Джим Каммингс/Jim Cummings, Вэл Бэттин/Val Bettin, Гилберт Готтфрид/Gilbert Gottfried, Линда Ларкин/Linda Larkin, Джерри Орбак/Jerry Orbach, Джон Рис-Дэвис/John Rhys-Davies, Скотт Венгер/Scott Weinger, Фрэнк Уэлкер/Frank Welker, Робин Уильямс/Robin Williams, Джефф Беннетт/Jeff Bennett и др.

Описание: Все жители Аграбы дружно готовятся к величайшему празднику — вот-вот состоится долгожданная свадьба Аладдина и принцессы Жасмин! Но сначала нашему герою придется остановить легендарную шайку сорока разбойников — ведь они хотят похитить свадебный подарок — всевидящего Оракула, с помощью которого злодеи хотят отыскать и прибрать к своим рукам все сокровища мира. Аладдину и его неразлучным друзьям — Жасмин, Абу, Коврику и весельчаку Джинну придется пережить немало приключений и найти выход из самых безвыходных ситуаций в погоне за Королем Разбойников и его удалой безжалостной шайкой.

Качество: BDRip 1080p
Формат: MKV
Видео кодек: AVC
Аудио кодек: AC-3
Видео: 1920 х 1080, 16:9, 24 fps, 12 mbps
Аудио 1: Russian, AC-3 5.1 @ 640 kbps, 6 ch, 48 KHz (Дубляж)
Общее
Уникальный идентификатор : 168348648403719580577546155723716462494 (0x7EA6C532C2870C1E037BA147C20E879E)
Полное имя : E:\Movies\Аладдин\3.Аладдин и король разбойников [Aladdin and the King of Thieves].mkv
Формат : Matroska
Версия формата : Version 2
Размер файла : 7,21 Гбайт
Продолжительность : 1 ч. 21 м.
Режим общего битрейта : Переменный
Общий поток : 12,6 Мбит/сек
Программа кодирования : Lavf51.12.1
Библиотека кодирования : Lavf51.12.1

Видео
Идентификатор : 1
Формат : AVC
Формат/Информация : Advanced Video Codec
Профиль формата : Baseline@L4
Параметр CABAC формата : Нет
Параметр ReFrames формата : 1 кадр
Параметр GOP формата : M=1, N=12
Идентификатор кодека : V_MPEG4/ISO/AVC
Продолжительность : 1 ч. 21 м.
Вид битрейта : Переменный
Битрейт : 11,7 Мбит/сек
Максимальный битрейт : 18,0 Мбит/сек
Ширина : 1920 пикселей
Высота : 1080 пикселей
Соотношение сторон : 16:9
Режим частоты кадров : Постоянный
Частота кадров : 24,000 кадра/сек
Цветовое пространство : YUV
Субдискретизация насыщенности : 4:2:0
Битовая глубина : 8 бит
Тип развёртки : Прогрессивная
Бит/(Пиксели*Кадры) : 0.236
Размер потока : 6,70 Гбайт (93%)
Default : Да
Forced : Нет

Аудио
Идентификатор : 2
Формат : AC-3
Формат/Информация : Audio Coding 3
Расширение режима : CM (complete main)
Параметр Endianness формата : Big
Идентификатор кодека : A_AC3
Продолжительность : 1 ч. 21 м.
Вид битрейта : Постоянный
Битрейт : 640 Кбит/сек
Каналы : 6 каналов
Расположение каналов : Front: L C R, Side: L R, LFE
Частота : 48,0 КГц
Частота кадров : 31,250 кадров/сек (1536 spf)
Битовая глубина : 32 бит
Метод сжатия : С потерями
Размер потока : 374 Мбайт (5%)
Default : Да
Forced : Нет
info [Профиль]  [ЛС] 

smashenemies

Пол: Пол:Муж

Стаж: 1 год 11 месяцев

Сообщений: 3

Украина
Рейтинг

post 09-Мар-2016 08:30 (спустя 12 часов) [-]8[+]

[Цитировать] 

Для души, душевно в душу! kolob_107
info [Профиль]  [ЛС] 

post 09-Мар-2016 17:55 (спустя 9 часов) [-]0[+]

Топик был перенесен из форума Анонсы в форум Мультфильмы (HD Video)

LyaKich
 

drunia2100

Пол: Пол:Муж

Стаж: 7 лет 6 месяцев

Сообщений: 334

Россия
Рейтинг

post 09-Мар-2016 18:17 (спустя 9 часов) [-]0[+]

[Цитировать] 

спасибо, давно искал вторую и третью серии в качестве хорошем. но тут конечно для мульта перебор. по 7гб. может кто сделает 720p гига по 3-4 каждый? спасибо
info [Профиль]  [ЛС] 

фиксатый

Пол: Пол:Муж

Стаж: 7 лет 1 месяц

Сообщений: 108

Уоллис и Футуна
Рейтинг

post 09-Мар-2016 19:16 (спустя 58 минут) [-]-1[+]

[Цитировать] 

Нормальный размер, для 65-ки самый раз)))

_________________
info [Профиль]  [ЛС] 

DAN4IK

Пол: Пол:Муж

Стаж: 6 лет 2 месяца

Сообщений: 52

Россия
Рейтинг

post 09-Мар-2016 23:43 (спустя 4 часа) [-]0[+]

[Цитировать] 

в своё время очень обрадовался, узнав что есть вторая часть, и с тех пор был уверен, что больше их и нет ... как я ошибался

_________________
info [Профиль]  [ЛС] 

topsex

Пол: Пол:Муж

Стаж: 6 лет 8 месяцев

Сообщений: 415

СССР
Рейтинг

post 10-Мар-2016 22:57 (спустя 23 часа) [-]1[+]

[Цитировать] 

Для справки - по хронологии идут сначала первые два мульта, потом мультсериал, а потом уже третий мульт.
И еще одна справочка в мультсериале поется песня:
Добрый путник войди в славный город Багдат,ты своим не поверишь глазам.
Ждет тебя впереди приключений каскад
Ты готов? Открывайся сезам!

Арабская ноооооочь
Волшебный востооооок
Здесь чары и месть, отвага и честь
Дворцы и песок.
О дивный восток! О сказочный край !
Здесь яд и булат погибель сулят
Смотри не зевай.

Хоть лукав и жесток но прекрасен восток,
Наточи свой клинок и вперед,
Пусть ковер самолет от забот унесет
На восток куда сказка зовет!
Но вот действия происходят в Аграбе, а не в Багдаде...

_________________
i5@4.0Ghz, 8Gb RAM, Radeon R9 280x 3Gb, SSD, W8.1 x64 \ Xbox 360
info [Профиль]  [ЛС] 
Показать сообщения:    
Ответить на тему

Текущее время: 10-Дек 16:55

Часовой пояс: GMT + 4



Вы не можете начинать темы
Вы не можете отвечать на сообщения
Вы не можете редактировать свои сообщения
Вы не можете удалять свои сообщения
Вы не можете голосовать в опросах
Вы не можете прикреплять файлы к сообщениям
Вы не можете скачивать файлы