Ошибка

До окончания фрилича осталось:


(AltRock) [CD] Muse - Showbiz - 1999, FLAC (image+.cue), lossless

Ответить на тему
 
Автор Сообщение

Гурин Евгений

Пол: Пол:Муж

Стаж: 1 год 6 месяцев

Сообщений: 1

Россия
Рейтинг

post 07-Мар-2016 00:00 0[+]

[Цитировать] 

Muse - Showbiz

Жанр: AltRock
Происхождение исполнителя: UK
Год издания данного носителя: 1999
Страна-производитель носителя: Japan
Лейбл: Taste/Avex
Каталоговый номер: AVCM-65057
Тип релиза: tracks+.cue
Аудио кодек: FLAC
Битрейт аудио: lossless
Продолжительность: 54:27:00
Источник (релизер): rutracker (Hellixxx)
Полиграфия: присутствует
Треклист:
01. Sunburn
02. Muscle Museum
03. Fillip
04. Falling Down
05. Cave
06. Showbiz
07. Unintended
08. Uno
09. Sober
10. Spiral Static
11. Escape
12. Overdue
13. Hate This & I'll Love You
 
Exact Audio Copy V1.1 from 23. June 2015

EAC extraction logfile from 20. November 2015, 12:09

Muse / Showbiz

Used drive : ASUS DRW-24F1ST a Adapter: 1 ID: 0

Read mode : Secure
Utilize accurate stream : Yes
Defeat audio cache : Yes
Make use of C2 pointers : No

Read offset correction : 6
Overread into Lead-In and Lead-Out : No
Fill up missing offset samples with silence : Yes
Delete leading and trailing silent blocks : No
Null samples used in CRC calculations : Yes
Used interface : Native Win32 interface for Win NT & 2000

Used output format : User Defined Encoder
Selected bitrate : 768 kBit/s
Quality : High
Add ID3 tag : No
Command line compressor : C:\Program Files (x86)\FLAC Frontend\tools\flac.exe
Additional command line options : -V -8 -T "Date=%year%" -T "Genre=%genre%" %source%

TOC of the extracted CD

Track | Start | Length | Start sector | End sector
---------------------------------------------------------
1 | 0:00.00 | 3:54.22 | 0 | 17571
2 | 3:54.22 | 4:23.15 | 17572 | 37311
3 | 8:17.37 | 4:01.20 | 37312 | 55406
4 | 12:18.57 | 4:33.73 | 55407 | 75954
5 | 16:52.55 | 4:46.00 | 75955 | 97404
6 | 21:38.55 | 5:16.57 | 97405 | 121161
7 | 26:55.37 | 3:57.08 | 121162 | 138944
8 | 30:52.45 | 3:38.32 | 138945 | 155326
9 | 34:31.02 | 4:03.45 | 155327 | 173596
10 | 38:34.47 | 4:44.05 | 173597 | 194901
11 | 43:18.52 | 3:31.48 | 194902 | 210774
12 | 46:50.25 | 2:26.20 | 210775 | 221744
13 | 49:16.45 | 5:10.25 | 221745 | 245019

Range status and errors

Selected range

Filename G:\EAC - Hellixxx rip\Muse - 1999 - Showbiz (AVCM-65057).wav

Peak level 99.2 %
Extraction speed 7.3 X
Range quality 100.0 %
Test CRC 25BF000C
Copy CRC 25BF000C
Copy OK

No errors occurred

AccurateRip summary
Track 1 accurately ripped (confidence 5) [EBC171EB] (AR v2)
Track 2 accurately ripped (confidence 5) [C804B48B] (AR v2)
Track 3 accurately ripped (confidence 5) [F3802704] (AR v2)
Track 4 accurately ripped (confidence 5) [10AF2224] (AR v2)
Track 5 accurately ripped (confidence 5) [69B10264] (AR v2)
Track 6 accurately ripped (confidence 5) [A21697EF] (AR v2)
Track 7 accurately ripped (confidence 5) [036DA3CA] (AR v2)
Track 8 accurately ripped (confidence 5) [ADFB48EC] (AR v2)
Track 9 accurately ripped (confidence 5) [DC920FAF] (AR v2)
Track 10 accurately ripped (confidence 5) [6C519339] (AR v2)
Track 11 accurately ripped (confidence 4) [BCFAB22E] (AR v2)
Track 12 accurately ripped (confidence 5) [2CA19442] (AR v2)
Track 13 accurately ripped (confidence 5) [2C276CBB] (AR v2)
All tracks accurately ripped

End of status report

==== Log checksum 952A81F4E0EB07B12E384B11C5E642F90884C62A50764005871C98888A29C6B7 ====

info [Профиль]  [ЛС] 
Показать сообщения:    
Ответить на тему

Текущее время: 10-Дек 03:16

Часовой пояс: GMT + 4



Вы не можете начинать темы
Вы не можете отвечать на сообщения
Вы не можете редактировать свои сообщения
Вы не можете удалять свои сообщения
Вы не можете голосовать в опросах
Вы не можете прикреплять файлы к сообщениям
Вы не можете скачивать файлы