Ошибка

Диверсанты / Серии: 4 из 4 (Олег Бобало-Яремчук) [2012 г., драма,военный,исторический,документальный HDTV 1080i]

Ответить на тему
 
Автор Сообщение

RedBull4293

Пол: Пол:Муж

Стаж: 3 года 10 месяцев

Сообщений: 42

Россия
Рейтинг

post 04-Мар-2016 20:21 1[+]

[Цитировать] 

pic="http://i76.fastpic.ru/big/2016/0304/33/217e58220dd695530db05a6b85f6ac33.jpg"
Диверсанты

Год выпуска: 2014
Страна: Россия
Жанр: военный, драма, исторический,документальный
Продолжительность: 1 серия ~00:53:00
Перевод: Оригинальный
Субтитры: Отсутствуют
Режиссер: Олег Бобало-Яремчук
Описание:
Рассказ о выполнении разведчиками конкретных и реальных заданий в тылу противника, о судьбах этих героев и об исторических обстоятельствах, в которых происходили описываемые события.
Рейтинг Кинопоиск: 7.686
Качество: HDTV 1080i
Формат: TS
Видео кодек: AVC
Аудио кодек: AC3
Видео: 1920x1080 (16:9) 25,000 кадров/сек, 7802 Кбит/сек, 0.151 bit/pixel
Аудио: MPEG Audio 48000Hz stereo 192 Кбит/сек - Оригинальный

Общее

Идентификатор : 1 (0x1)
Полное имя : C:\OGO2\Downloads\Фильмы\Первая Мировая (WEB-DL 1080p)\Диверсанты\1 серия.ts
Формат : MPEG-TS
Размер файла : 2,53 Гбайт
Продолжительность : 43 м.
Режим общего битрейта : Переменный
Общий поток : 8412 Кбит/сек

Видео

Идентификатор : 2911 (0xB5F)
Идентификатор меню : 1 (0x1)
Формат : AVC
Формат/Информация : Advanced Video Codec
Профиль формата : High@L4
Параметр CABAC формата : Да
Параметр ReFrames формата : 3 кадра
Идентификатор кодека : 27
Продолжительность : 43 м.
Битрейт : 7802 Кбит/сек
Ширина : 1920 пикселей
Высота : 1080 пикселей
Соотношение сторон : 16:9
Частота кадров : 25,000 кадров/сек
Цветовое пространство : YUV
Субдискретизация насыщенности : 4:2:0
Битовая глубина : 8 бит
Тип развёртки : MBAFF
Метод сохранения типа развёртки : Чередующиеся поля
Порядок развёртки : Верхнее поле первое
Бит/(Пиксели*Кадры) : 0.151
Размер потока : 2,35 Гбайт (93%)

Аудио

Идентификатор : 2912 (0xB60)
Идентификатор меню : 1 (0x1)
Формат : MPEG Audio
Версия формата : Version 1
Профиль формата : Layer 2
Режим : Joint stereo
Расширение режима : Intensity Stereo + MS Stereo
Идентификатор кодека : 3
Продолжительность : 43 м.
Вид битрейта : Постоянный
Битрейт : 192 Кбит/сек
Каналы : 2 канала
Частота : 48,0 КГц
Метод сжатия : С потерями
Размер потока : 59,1 Мбайт (2%)
Язык : Russian
info [Профиль]  [ЛС] 
Показать сообщения:    
Ответить на тему

Текущее время: 04-Дек 14:17

Часовой пояс: GMT + 4



Вы не можете начинать темы
Вы не можете отвечать на сообщения
Вы не можете редактировать свои сообщения
Вы не можете удалять свои сообщения
Вы не можете голосовать в опросах
Вы не можете прикреплять файлы к сообщениям
Вы не можете скачивать файлы